<?xml version="1.0" standalone="no"?>
<!DOCTYPE svg PUBLIC "-//W3C//DTD SVG 1.1//EN" "http://www.w3.org/Graphics/SVG/1.1/DTD/svg11.dtd" >
<svg xmlns="http://www.w3.org/2000/svg">
<metadata>Generated by IcoMoon</metadata>
<defs>
<font id="gab_font_icon" horiz-adv-x="1024">
<font-face units-per-em="1024" ascent="960" descent="-64" />
<missing-glyph horiz-adv-x="1024" />
<glyph unicode="&#x20;" horiz-adv-x="512" d="" />
<glyph unicode="&#xe900;" glyph-name="dissenter" d="M90.4 902.24c-5.92-0.8-23.040-6.24-30.24-10.72-3.68-2.080-8.16-4.48-9.92-5.28-4.64-2.56-18.72-17.12-23.68-24.64-5.28-7.68-11.36-21.28-12.48-27.52-0.48-2.080-1.44-5.76-2.24-7.52-1.44-2.56-1.6-63.52-1.6-378.56 0-264 0.32-379.52 1.28-382.24 0.48-1.76 1.92-6.72 2.72-10.080 0.96-3.36 1.76-7.68 4-11.040 1.12-2.72 2.24-5.44 2.24-6.080s0.64-1.92 1.44-2.72c0.64-0.64 3.040-3.84 5.28-7.040 4.8-8.96 16-19.040 23.040-23.36 3.36-2.24 7.2-4.64 8.48-5.44 4.16-2.72 11.84-5.92 18.4-7.68 2.88-0.96 8.16-2.56 9.92-3.2 4.64-1.76 466.56-2.56 485.44-0.8 34.080 3.36 54.72 5.76 61.44 7.52 3.52 0.96 8.48 1.6 10.88 1.6 2.56 0 6.72 0.64 9.44 2.56 1.76 0 9.44 1.44 14.72 2.56 5.44 0.96 11.36 2.56 13.44 3.52s5.28 1.6 7.2 1.6c1.92 0 4.96 0.64 6.4 1.6 3.68 1.76 19.36 7.2 24 8.48 3.52 0.48 6.4 1.44 7.68 2.080 1.12 0.8 4.48 2.080 7.36 3.2s6.72 2.72 8.8 3.52c1.92 0.96 5.6 2.4 8 3.36 4.48 2.080 17.92 8.32 20.8 9.76 0.8 0.64 7.36 3.84 14.080 8.32 7.040 2.4 13.28 6.56 16.16 8.16 1.92 1.44 4 2.72 4.32 2.72 1.12 0 18.56 11.68 28.48 19.040 3.68 2.88 21.12 16.48 24.48 19.2 7.68 6.24 45.6 45.12 45.6 46.88 0 0.48 1.12 2.080 2.56 3.36 1.6 1.12 6.24 6.56 10.56 12.64 4.16 5.28 8.32 10.24 9.12 10.72 0 0.48 1.6 1.44 1.6 2.080s2.72 5.28 6.080 10.4c7.36 11.36 11.2 17.76 17.12 28.64 2.4 4.48 4.96 8.8 5.92 9.92 0.96 2.24 1.28 2.24 1.28 3.040 0 1.44 8 16.32 9.44 17.76 0.64 0.64 1.12 1.92 1.12 2.88 0 2.24 5.44 18.24 8.48 20.48 0.8 0.96 1.76 3.52 2.080 6.080 0.64 4.16 6.080 20.64 8 24.16 0.64 1.28 1.6 4.32 2.080 7.84 0.8 5.12 7.2 27.68 8.8 32 0.64 1.44 1.28 5.12 1.28 7.68s0.64 8.32 1.6 9.92c0.8 2.88 2.4 11.84 3.36 19.84 0.96 8.32 1.76 19.68 3.52 26.56 2.4 14.24 2.4 80.96 0.16 92.64-1.92 4.64-2.56 16.16-3.52 25.92-1.12 9.6-2.72 19.36-3.52 21.44-0.96 2.080-1.6 6.4-1.6 9.44 0 3.2-0.64 7.36-1.6 10.56-0.96 0.8-1.92 3.68-2.24 5.12-2.24 11.2-5.44 18.72-5.44 20.64-0.48 1.12-0.96 3.36-0.96 6.24 0 0.8-0.8 3.2-1.6 4.48s-1.92 4.16-2.24 6.72c-0.48 2.4-2.080 7.2-3.68 10.72-1.44 3.36-2.72 7.52-2.72 10.080 0 0.96-0.96 3.52-2.24 4.96-2.56 1.6-2.88 5.6-4 8.8s-2.4 6.24-3.040 6.56c-0.48 0.48-0.96 1.92-0.96 3.2 0 1.6-0.8 3.36-1.76 4.16-0.8 0.8-1.6 1.92-1.6 2.56 0 2.080-15.52 31.84-21.12 40.64-2.080 2.88-4.32 7.040-5.6 9.44-12.48 20.8-45.76 61.44-69.44 82.88-7.84 6.88-15.2 13.28-16.32 13.92-1.92 1.12-9.28 6.88-16.64 12.96-6.4 5.44-32.16 21.92-42.24 27.040-16.48 8.8-27.84 14.24-29.6 14.24-0.8 0-1.92 0.8-2.88 1.6-0.8 0.96-1.76 1.76-2.24 1.76-0.64 0-4.32 1.44-9.12 3.36-3.040 1.92-10.72 4.8-16.48 6.88-5.44 1.92-11.52 4.32-13.28 5.28-2.24 0.96-4 1.6-5.44 1.6s-3.52 0.48-4.8 1.28c-1.44 0.8-8 2.88-12.32 4-5.28 1.28-11.68 3.040-12.8 3.68-1.76 0.64-4.64 1.28-6.56 1.28-1.76 0-4.96 0.64-8.32 1.6-0.64 0.96-7.52 2.4-13.76 3.52s-13.44 2.56-15.68 4.8c-2.56 0-8 0.32-12.48 0.32s-10.080 0.48-12.32 1.12c-2.24 0.48-11.52 2.080-20.48 3.040-15.040 1.76-38.88 1.92-261.28 2.080-132.64 0.16-243.68 0-245.6-0.32zM690.56 622.24c2.56-1.92 6.4-5.92 8.64-9.12 3.68-5.12 4-5.12 4-14.24 0-4.64-0.8-9.76-1.44-11.2-3.2-5.92-8.8-11.68-14.24-14.56l-5.44-2.88h-209.28c-194.88 0-209.6 0.16-212.8 2.080-1.76 0.96-4.64 3.68-5.76 3.68-1.44 0-4.32 2.56-6.72 5.44l-4 4.96v12c0 12 0 12.16 3.68 16.48 1.92 2.56 5.44 5.76 7.68 7.36l4 3.040 427.2 0.16zM473.6 472.96c113.6 0 207.36 0.32 208.32 0.8 3.52 1.28 12.96-5.92 18.24-14.080 2.72-4 3.2-5.92 3.2-13.28 0.16-7.52-0.16-9.12-3.040-13.28-3.84-6.080-8-9.76-13.28-12.48-4.16-2.080-10.24-2.24-214.24-2.24-209.6 0-210.080 0-214.56 2.4-5.12 2.56-9.92 6.88-12.8 11.52-1.44 2.4-1.92 5.6-1.92 15.68s0.16 10.4 3.68 16c5.12 5.28 13.12 10.56 16.8 9.76 1.6-0.32 95.68-0.64 209.6-0.8zM551.68 320c5.28-3.2 8.32-7.68 13.6-14.080 7.52-12.8 0.48-30.72-15.040-37.76-4.48-2.080-10.88-2.24-143.68-2.24-103.2 0-140.48 0.32-144.8 1.44-5.76 0.96-7.2 2.4-12.16 7.52l-6.080 6.24v25.76l4.8 5.28c7.68 8.48 10.88 9.44 33.28 9.76 10.72 0.32 74.72 0.32 142.56 0.16 118.72-0.32 123.2-0.32 127.52-2.080z" />
<glyph unicode="&#xe901;" glyph-name="globe" d="M901.608 595.992l9.021-6.339h8.29v15.848l26.088 2.682 24.869-18.53h40.96l2.682 4.632c-3.901 11.703-8.533 25.356-13.897 38.522l-26.575-0.488-13.41 14.629-2.438 23.65-13.653-7.314-7.558-29.013-19.749 21.211-0.731 19.749-19.017 16.579-7.070 7.070h-22.187l7.070-19.749 26.575-14.872 4.632-5.12-5.851-2.682 0.244-15.848-12.922-5.364-11.215 2.438-6.827 9.752 18.042-0.975 4.876 6.583-39.985 27.063-3.17 11.703-16.091-14.872-16.579 3.413-24.869-32.67-5.12-12.678-15.848-1.463-23.893-0.244-14.872 6.583-3.413 28.282 3.413 13.41 24.381 5.364 27.794-5.364 3.17 14.629-11.215 2.682 3.901 22.43 25.112 4.145 19.992 26.331 19.017 3.17 17.31-2.682h6.339l-3.413 24.625-21.211-8.533-7.314 18.53-12.19 2.438-2.194 11.703 8.046 12.678 24.381 7.558 7.070 10.728c-90.21 79.726-208.457 128-337.92 128-112.396 0-216.503-36.571-303.055-97.524h28.038l11.459-6.583 21.699-4.632 1.707-8.777 34.377-1.219-4.632 11.215-30.476 0.731 7.070 6.827-2.438 8.046h-27.794l30.232 22.674h28.282l14.385-18.773 22.43-1.219 11.947 13.166 11.947-5.12-18.773-16.335c0 0-25.844-2.438-24.625-2.438s2.194-17.798 2.194-17.798l29.257 0.731 5.608 8.533 21.455 1.219 2.682 12.678-12.678 2.194 4.145 11.703 9.752 2.926 34.133-1.707-18.773-17.067 2.438-13.166 19.992-3.17-1.219 23.893 18.773 9.752 33.158 6.095 48.274-23.406v-18.286l15.116-3.901-7.558-14.385h-21.699l-7.314-16.579-48.762 11.703 39.010 20.724-14.872 12.678-33.646-4.389-3.657-3.657-11.215-9.265h-14.385l1.219-9.996 5.851-2.438-0.488-2.682-12.922-1.707-0.975-7.558h-12.434l-2.194 14.385-22.43-6.827-45.592-26.819 5.12-18.773 12.678-8.29 25.6-2.438v-29.989l11.703 1.707 10.971 22.674 27.063 8.533v34.865l15.116 11.459 36.571-8.533-2.682-23.162h9.996l25.356 13.41 2.682-30.232 19.505-11.947-0.731-18.042-18.773-6.339 1.219-5.851 20.48-10.24v-12.434l-4.876-0.488c0 0.244 0 0.244 0 0.244l-28.526 8.777-1.219 9.265 8.29 5.608v8.533l-9.021 2.194-2.194-7.802-15.604-2.438-1.707 0.488v-0.731l-5.364-0.731-4.389 9.021-5.12 2.194h-11.215l-5.12-4.389v-9.265l9.752-2.926 9.265-1.463-2.194-0.731-8.533-9.752-3.657 4.632-8.29 2.438-22.674-21.455 2.926-0.244-33.646-20.724-31.451-32.914-2.194-14.385-31.451-20.724-15.604-15.848 1.707-31.451-21.699 10.24v18.286h-60.221l-31.451-14.385-13.41-24.381-5.608-21.943 9.021-19.261 24.625-2.926 39.253 26.088 3.413-12.922-14.385-22.674 32.183-5.12 2.926-46.080 40.716-6.827 26.088 29.989 31.451-6.339 11.215-15.36 29.989 1.707 0.975 9.021 16.579-8.29 18.773-29.257 32.183-0.488 11.947-20.724 1.707-25.6 35.84-13.653 45.105-0.488 13.166-21.699 19.992-6.339-5.12-17.798-20.724-27.794-6.339-61.684-21.699-14.872h-27.307l-9.752-17.067 7.070-31.695-31.939-40.96-11.215-18.773-29.257-13.41-19.992-4.389-0.975-8.29 14.141-4.145-1.707-7.558-12.678-13.653 7.802-9.509 15.116-0.488-0.975-11.703-3.901-11.459-1.463-9.265 22.43-17.067-2.926-11.703-30.476 0.488-30.232 26.575-23.65 41.448 1.219 40.716-15.848 24.381 7.314 39.253-10.728 2.926v87.528c0 0-29.745 22.674-31.451 22.674s-15.848 3.901-15.848 3.901l-2.926 16.579-38.766 48.518 3.901 17.31 1.219 29.501 26.819 17.798-3.901 31.939-39.010 2.926-30.72 34.865-35.596 9.996 1.707 11.459-18.042 2.438v-7.070l-44.617 10.971-18.042 27.55 7.314 13.41-28.282 41.204-7.070 30.232h-9.265l3.901-29.257 19.505-30.232-2.194-11.947-16.579 2.682-20.236 36.084v39.010l-21.455 10.24v29.257c-26.819-61.684-40.716-127.269-40.716-200.411 0-282.331 229.669-512 512-512 159.939 0 303.055 73.874 396.922 189.196h-17.31v34.133l-19.017 26.088v43.154l-14.872 12.678-1.463 17.067 19.017 36.328-35.84 63.39 3.413 42.91-31.451 3.413-11.947 11.947h-21.699l-10.971-10.24h-38.522l-1.219-3.413h-21.211l-49.006 55.832 0.488 43.398 8.046 2.926 2.926 16.579h-11.459l-4.632 17.31 56.564 40.96v29.013l27.794 15.116 8.777-0.975h24.381l18.53 9.509 57.539 4.632v-29.501zM755.81 778.606l6.827 7.314 16.823 3.413 4.145-20.48 9.021-14.629 5.851-6.827 10.971-4.145-10.24-12.19-19.749-1.707h-14.872l1.707 17.554 12.19 2.438-0.975 8.29-11.459 7.314-10.24 5.608zM730.453 746.667l10.24 18.286 13.653 1.219 9.752-4.145-0.975-10.971-20.968-15.116h-11.703zM452.267 683.764l-10.728-0.975 0.488 9.021 4.876 4.389 6.339-4.389zM487.619 696.686l-5.364-0.488-1.463-7.070-5.608-3.413-9.021-0.975c-0.244 2.194-0.488 3.901-0.488 3.901h-3.413v7.558h14.629l2.926 7.802h5.851l6.827-1.219z" />
<glyph unicode="&#xe902;" glyph-name="add_image" d="M456.32 608c0-39.52-31.52-71.040-70.4-71.040-38.72 0-70.24 31.52-70.24 71.040 0 38.080 31.52 69.6 70.24 69.6 38.88 0 70.4-31.52 70.4-69.6zM963.36 348.32c-33.12 31.36-75.2 51.84-121.12 57.6v357.76c0 38.080-15.68 72.32-40 97.6-25.44 25.44-59.68 40.16-98.24 40.16h-566.24c-38.080 0-73.76-15.68-97.76-40.16-25.28-25.28-40-59.52-40-97.6v-583.36c0-38.080 15.68-72.32 40-97.76 24-25.44 59.68-40 97.76-40h548.16c36.16-29.44 81.12-48 130.080-48 58.56 0 110.24 23.52 147.36 60.64 37.28 37.12 60.64 88.96 60.64 146.56s-23.36 109.44-60.64 146.56zM51.84 763.68c0 23.36 9.76 44.96 25.28 60.48 15.68 15.68 37.12 25.44 60.64 25.44h566.24c24 0 45.44-9.76 61.12-25.44 15.52-15.52 25.44-37.12 25.44-60.48v-304.96l-144.64 143.68c-9.92 9.76-26.4 10.72-37.92 0l-217.12-218.4-147.52 148c-9.92 9.76-26.4 12-37.12 0l-154.4-156.32zM136.8 93.28v0.96c-24.8 0-44.96 9.76-60.64 25.44-14.56 15.68-24.32 37.12-24.32 60.64v122.080l173.92 173.92 147.52-147.52c9.76-8.8 26.4-8.8 37.12 0l217.92 218.88 142.56-143.68c-2.88-0.96-5.76-1.92-8.8-2.88-3.84-0.96-7.84-1.12-12.64-4-4-0.96-7.84-2.88-11.68-3.84-3.040-0.96-4.96-1.92-7.84-3.84-3.84-2.080-6.88-3.040-9.92-4.96-4.8-2.88-9.6-5.92-16-8.8-1.44-1.92-3.36-2.88-6.4-4.8-1.92-1.12-2.88-2.080-4.8-2.88-8.8-6.080-16.64-12.8-23.52-20.64-37.12-37.12-61.28-88.96-61.28-146.56 0-14.72 2.72-28.32 5.6-43.040 0.96-3.84 1.92-6.88 3.040-10.72 2.88-9.76 5.76-19.040 9.6-29.28v-0.96c4-7.84 7.84-16.64 12.8-23.52zM925.28 92.32c-29.28-28.32-66.4-44.32-109.44-44.32-40.96 0-79.84 16-106.4 42.4-5.44 3.84-7.84 8.8-11.84 12.64-2.88 2.88-5.76 6.88-9.6 9.76-3.040 4.96-5.92 10.88-8.96 16.64-1.92 4-3.84 6.88-7.040 10.72-0.8 4.96-2.72 10.72-3.68 16.64-0.96 4-2.88 8.8-3.84 12.64-1.92 9.92-3.040 20.64-3.040 31.36 0 43.040 17.6 81.12 44.96 109.44 28.32 28.32 66.4 44.96 109.44 44.96s80.16-17.6 109.44-44.96c28.32-27.36 44.96-66.4 44.96-109.44 0-40.8-17.6-80.16-44.96-108.48zM900.8 228.16h-59.52v59.84c0 14.4-11.68 26.080-26.4 26.080-14.88 0-26.4-11.68-26.4-26.080v-59.84h-59.52c-14.72 0-26.4-11.68-26.4-26.4 0-14.56 11.68-25.76 26.4-25.76h59.52v-60.16c0-14.72 11.52-26.4 26.4-26.4 14.72 0 26.4 11.68 26.4 26.4v60.16h59.52c14.72 0 26.4 11.2 26.4 25.76 0 14.72-11.68 26.4-26.4 26.4z" />
<glyph unicode="&#xe903;" glyph-name="like" d="M954.667 387.627c20.053 30.293 30.080 63.787 30.080 100.267 0 42.24-15.573 78.933-46.72 110.293-31.147 31.147-68.053 46.72-110.72 46.72h-108.373c19.627 40.533 27.733 80.427 27.733 118.187 0 48-5.333 85.973-21.333 114.347-12.8 28.373-33.707 49.28-61.227 62.507-27.52 13.44-58.453 20.053-93.013 20.053-20.907 0-39.253-7.68-55.253-21.333-17.707-18.773-30.507-40.747-38.187-67.84-8.32-27.093-14.080-53.12-18.773-77.867-4.693-24.96-11.947-42.453-21.973-52.693-20.053-21.76-41.813-48-65.707-78.72-41.387-53.76-69.547-85.547-84.267-95.36h-168.747c-21.76 0-40.32-7.893-55.68-23.253s-23.040-33.92-23.040-55.68v-394.027c0-21.547 7.68-40.107 23.040-55.467 15.36-15.573 33.92-23.253 55.68-23.253h177.28c8.96 0 37.333-8.107 84.907-24.533 50.56-17.707 94.933-31.147 131.627-40.32 40.107-9.173 78.933-13.653 118.187-13.653h79.573c57.813 0 104.32 16.427 139.733 49.28 35.2 33.067 52.693 78.72 52.267 135.040 24.533 31.787 36.907 68.267 36.907 109.653 0 8.96-0.64 17.92-1.92 26.453 15.573 27.52 23.253 57.173 23.253 88.747 0 14.72-1.707 28.8-5.333 42.453zM185.173 106.667c-7.68-9.387-16.853-13.44-27.52-13.44s-20.053 4.053-29.653 13.44c-5.973 6.187-9.813 15.36-9.813 26.027s3.84 20.053 9.813 27.733c9.6 7.893 18.987 11.733 29.653 11.733s19.84-3.84 27.52-11.733c6.827-7.68 11.733-17.067 11.733-27.733s-4.907-19.84-11.733-26.027zM892.8 437.333c-8.747-18.773-19.84-28.373-32.853-28.8 5.973-7.040 11.307-16.853 14.72-29.227 4.693-12.587 6.827-23.893 6.827-34.133 0-28.373-10.88-52.907-32.64-73.387 7.253-13.013 11.093-27.307 11.093-42.453s-3.627-30.293-10.88-45.227c-7.253-13.44-17.067-25.6-29.227-32.213 2.133-12.373 2.987-23.893 2.987-34.56 0-68.48-39.253-102.827-118.827-102.827h-73.6c-54.4 0-123.947 15.147-210.56 45.013-2.133 0.853-8.107 4.48-17.92 6.4-9.813 3.627-17.92 5.973-21.76 7.68-4.907 1.707-11.947 4.053-21.547 7.253-9.6 4.48-17.493 5.333-23.467 6.613-5.973 1.493-12.8 2.773-20.267 4.053-7.68 1.28-14.080 1.707-19.413 1.707h-19.627v394.027h19.627c6.613 0 13.867 3.413 21.973 5.547 7.893 3.627 16 9.173 23.893 16.64 8.96 7.467 16.853 14.72 24.32 21.76 7.253 7.253 15.573 16.213 24.533 27.093s15.147 19.627 21.333 26.24c5.12 6.613 11.52 14.933 19.413 25.173 7.68 10.24 12.587 16.427 14.080 18.56 22.613 27.733 38.4 46.507 45.653 55.893 18.56 17.707 30.72 41.173 38.4 67.413 7.68 27.307 13.867 53.12 18.773 77.227 4.907 24.533 12.587 41.6 23.467 52.267 39.253 0 65.493-9.387 78.72-27.733 11.307-20.267 19.627-50.133 19.627-90.24 0-24.32-9.813-57.173-29.653-98.773-21.333-41.813-29.44-74.453-29.44-98.133h216.747c20.48 0 38.613-8.107 54.613-23.893 14.080-15.787 24.107-34.133 24.107-55.040 0-14.293-4.267-30.933-13.227-49.92z" />
<glyph unicode="&#xe904;" glyph-name="explore" d="M482.133-58.88v218.027c-55.467-2.133-108.8-9.813-160-22.613 8.107-20.053 17.493-39.253 26.88-57.173 39.253-72.107 87.893-122.027 133.12-138.24zM674.56 79.36c8.107 17.92 19.2 37.12 27.307 57.173-51.2 12.8-105.387 20.48-160 22.613v-218.027c45.227 16.213 93.867 66.133 132.693 138.24zM482.133 218.88v199.68h-218.88c2.56-78.080 16.213-155.307 35.413-225.707 61.013 14.933 122.027 23.893 183.467 26.027zM482.133 478.72v199.68c-61.44 2.133-122.453 11.093-183.467 25.6-19.2-69.973-32.853-147.627-35.413-225.28zM759.893 777.813c36.267 12.373 71.253 27.307 102.827 44.8-55.893 52.053-123.307 94.72-198.4 116.053 22.613-25.6 43.947-56.32 61.013-92.16 14.080-21.76 24.747-44.8 34.56-68.693zM349.44 817.92c-9.813-17.92-19.2-37.12-27.307-57.173 51.2-12.8 104.533-20.48 160-22.613v221.867c-45.227-20.053-93.867-69.973-132.693-142.080zM541.867 418.56v-199.68c61.44-2.133 122.453-11.093 180.48-26.027 22.187 70.4 35.84 147.627 38.4 225.707zM541.867 678.4v-199.68h218.88c-2.56 77.653-16.213 155.307-38.4 225.28-58.027-14.507-119.040-23.467-180.48-25.6zM243.627 175.787c-23.893 75.52-37.973 158.293-40.533 242.773h-203.093c6.4-113.067 50.347-216.747 118.613-298.667 38.4 22.187 80.64 40.96 125.013 55.893zM759.893 119.467c-9.813-23.893-20.48-46.933-34.56-68.693-17.067-35.84-38.4-66.56-61.013-91.733 75.093 23.467 142.507 63.147 198.4 115.627-31.573 17.493-66.56 32.427-102.827 44.8zM264.107 119.467c-36.267-12.373-71.253-27.307-102.827-44.8 52.053-52.48 123.307-92.16 198.4-115.627-22.613 25.173-43.947 55.893-63.147 91.733-11.947 21.76-22.613 44.8-32.427 68.693zM780.373 721.493c23.893-75.52 37.973-158.293 40.533-242.773h203.093c-6.4 113.067-50.347 216.747-118.613 298.667-38.4-22.187-80.64-40.96-125.013-55.893zM780.373 175.787c44.373-14.933 86.613-33.707 125.013-55.893 68.267 81.92 112.213 185.6 118.613 298.667h-203.093c-2.56-84.48-16.64-167.253-40.533-242.773zM541.867 960v-221.867c54.613 2.133 108.8 9.813 160 22.613-8.107 20.053-19.2 39.253-27.307 57.173-38.827 72.107-87.467 122.027-132.693 142.080zM243.627 721.493c-44.373 14.933-86.613 33.707-125.013 55.893-68.267-81.92-112.213-185.6-118.613-298.667h203.093c2.56 84.48 16.64 167.253 40.533 242.773zM264.107 777.813c9.813 23.893 20.48 46.933 32.427 68.693 19.2 35.84 40.533 66.56 63.147 92.16-75.093-21.333-146.347-64-198.4-116.053 31.573-17.493 66.56-32.427 102.827-44.8z" />
<glyph unicode="&#xe905;" glyph-name="light-bulb" d="M639.75 213.25h-255.5c-11.75 0-21.5-14.25-21.5-32 0-17.5 9.5-32 21.5-32h255.5c12 0 21.5 14.5 21.5 32 0 17.75-9.5 32-21.5 32zM639.75 106.75h-255.5c-11.75 0-21.5-14.5-21.5-32 0-17.75 9.5-32 21.5-32h255.5c12 0 21.5 14.25 21.5 32 0 17.5-9.5 32-21.5 32zM576 0h-128c-11.75 0-21.25-14.25-21.25-32s9.5-32 21.25-32h128c11.75 0 21.25 14.25 21.25 32s-9.5 32-21.25 32zM806.75 744.25c-7.75 20.75-26.25 69.25-70.5 116.25-46.5 49.5-102.25 81-165 93.75-39.25 7.75-79.25 7.75-118.25 0-63-12.75-118.5-44.25-165.25-93.75-44.25-46.75-62.75-95.5-70.5-116.25-10-26.5-28.5-75.5-23.25-140.25 5.75-71.25 36.75-123.25 47-140.25 6.25-10.5 19-30.75 44.75-67 6.5-9.25 12-16.5 17-23.25 11.75-16 18.5-25 25.25-39.25 9.25-19 16-39.5 20.25-60.25 2-10 10.75-17.25 20.75-17.25h286c10.25 0 19 7.5 20.75 17.5 4 20.75 10.75 41 20.25 59.75 7.25 14.75 14.25 24 26.5 41.25 4.5 6 9.75 13 15.75 21.75 17.75 24.75 33 46.25 45 66.75 11.25 19.25 41.25 70.5 46.75 140.25 5.25 64.75-13.25 114-23.25 140.25z" />
<glyph unicode="&#xe906;" glyph-name="calendar" d="M964.907 792.107c-14.293 14.507-31.573 21.76-51.2 21.76h-73.173v54.827c0 24.96-8.96 46.507-26.88 64.427s-39.253 26.88-64.427 26.88h-36.48c-25.173 0-46.72-8.96-64.64-26.88s-26.88-39.467-26.88-64.427v-54.827h-219.307v54.827c0 24.96-8.747 46.507-26.667 64.427s-39.467 26.88-64.64 26.88h-36.48c-25.173 0-46.72-8.96-64.64-26.88s-26.667-39.467-26.667-64.427v-54.827h-73.173c-19.84 0-36.907-7.253-51.413-21.76-15.573-14.507-21.76-31.573-21.76-51.413v-730.88c0-19.84 6.187-36.907 21.76-51.413 14.507-14.507 31.573-21.547 51.413-21.547h803.84c19.84 0 37.12 7.040 51.413 21.547 14.507 14.507 21.76 31.573 21.76 51.413v730.88c0 19.84-7.253 36.907-21.76 51.413zM274.133 9.813h-164.48v164.48h164.48zM274.133 210.773h-164.48v182.827h164.48zM274.133 430.080h-164.48v164.48h164.48zM261.333 691.413c-5.333 3.413-5.547 7.893-5.547 12.8v164.48c0 5.973 0.213 9.173 5.547 12.8 3.413 3.627 7.893 5.333 12.8 5.333h36.48c4.907 0 9.387-1.707 12.8-5.333 3.627-3.627 5.547-6.827 5.547-12.8v-164.48c0-4.907-1.92-9.387-5.547-12.8-3.627-3.627-7.893-5.547-12.8-5.547h-36.48c-4.907 0-9.387 1.92-12.8 5.547zM493.44 9.813h-182.827v164.48h182.827zM493.44 210.773h-182.827v182.827h182.827zM493.44 430.080h-182.827v164.48h182.827zM712.747 9.813h-182.827v164.48h182.827zM712.747 210.773h-182.827v182.827h182.827zM712.747 430.080h-182.827v164.48h182.827zM699.733 691.413c-3.627 3.413-5.333 7.893-5.333 12.8v164.48c0 5.973 1.707 9.173 5.333 12.8s7.893 5.333 13.013 5.333h36.48c4.907 0 9.173-1.707 12.8-5.333s5.333-6.827 5.333-12.8v-164.48c0-4.907-1.707-9.387-5.333-12.8-3.627-3.627-7.893-5.547-12.8-5.547h-36.48c-5.12 0-9.387 1.92-13.013 5.547zM913.493 9.813h-164.267v164.48h164.267zM913.493 210.773h-164.267v182.827h164.267zM913.493 430.080h-164.267v164.48h164.267z" />
<glyph unicode="&#xe907;" glyph-name="gab-g" d="M442.581 880.427c-36.672-4.907-75.435-18.496-105.6-37.333-22.997-14.251-53.653-42.176-70.656-64.085-32.171-41.579-53.675-92.992-60.843-145.003-2.176-16.085-2.987-49.664-1.579-64.491 4.501-46.421 16.661-87.829 36.245-123.008 15.253-27.413 28.672-44.992 49.515-65.579 24.32-23.829 44.203-38.421 70.336-51.328 71.317-35.264 154.581-36.416 220.907-3.093 19.093 9.579 32.747 19.499 51.008 37.013l9.408 8.981-0.747-21.568c-1.173-40.256-4.757-60.843-14.763-84.843-12.16-29.077-29.483-50.24-54.315-66.24-14.421-9.344-24.832-13.675-45.099-18.752-17.749-4.245-23.744-5.099-40.576-5.163-24.341-0.085-44.331 3.157-68.843 11.584-19.819 6.827-49.984 21.653-64.149 31.659l-2.752 1.835-5.504-10.176c-3.008-5.739-19.413-36.416-36.416-68.331l-30.827-58.005 6.571-4.907c46.507-34.411 104.427-56.427 171.584-65.088 19.179-2.507 74.923-1.664 95.509 1.429 49.899 7.403 91.989 21.248 126.997 42.069 33.835 19.913 65.152 50.176 86.165 83.008 29.909 46.827 46.839 98.987 54.507 169.003 1.493 14.165 1.749 38.912 1.813 284.821l0.597 269.163h-182.080v-52.331l-11.179 10.923c-12.565 12.075-18.987 17.344-31.915 25.749-24.171 15.339-51.84 25.493-85.909 31.253-13.589 2.325-53.013 2.837-67.413 0.832zM531.499 717.013c8.585-1.597 26.835-7.68 35.001-11.847 17.667-8.75 36.5-24.569 47.495-39.78 20.821-29.035 28.331-65.707 20.416-99.2-12.011-51.008-53.248-90.261-103.424-98.667-12.075-2.091-34.091-1.6-45.333 0.981-18.005 4.011-38.656 14.336-54.251 26.923-29.333 23.595-46.336 58.667-46.507 96.085-0.064 27.669 10.432 56.171 30.016 80.832 17.237 21.76 49.664 40.576 77.909 45.163-469.271 231.204-468.38 231.192NaNNaNlNaNNaNz" />
<glyph unicode="&#xe908;" glyph-name="strikethrough" d="M226.786 541.666c2.711-3.313 5.421-9.035 8.132-13.553h246.965c-34.334 11.746-55.115 24.094-75.294 37.346-26.202 17.468-39.153 39.153-39.153 64.753 0 12.348 2.711 24.395 7.529 35.539 5.12 10.842 12.951 23.191 23.191 28.913 9.939 8.132 22.889 14.758 38.551 19.275 15.059 5.12 34.033 6.927 55.115 6.927 20.179 0 40.96-1.807 56.922-8.433 15.962-5.12 29.515-13.252 40.056-23.191 10.842-9.939 18.974-21.986 24.094-36.141 5.12-13.854 7.831-29.214 7.831-45.478h161.129c0 34.936-6.927 67.464-20.48 96.979s-32.828 55.115-58.127 76.499c-24.998 21.685-55.416 38.249-90.654 50.296-35.539 12.047-74.692 17.769-118.061 17.769-42.767 0-81.016-5.12-116.254-15.661s-65.656-24.094-91.256-44.273c-25.6-18.974-46.080-40.056-59.633-68.969-16.565-27.106-21.384-56.621-21.384-89.449 0-32.226 4.819-62.344 20.781-89.148zM0 474.504v-107.219h515.313c9.638-3.614 21.384-7.529 26.805-9.638 22.588-9.939 37.948-19.275 49.393-28.612 10.842-9.336 18.673-19.275 22.588-30.118 3.915-11.144 6.024-23.191 6.024-36.744 0-12.649-2.409-24.395-7.228-34.936-4.819-11.144-12.348-20.179-22.287-28.311-9.939-7.529-22.889-13.854-37.948-18.372-15.661-3.614-33.732-6.626-54.513-6.626-23.191 0-46.381 3.012-63.247 6.927-19.275 4.518-35.238 12.047-48.489 22.287-13.553 9.939-24.998 23.492-31.322 39.755-7.529 16.264-13.854 40.96-13.854 64.452h-160.527c0-29.214 5.722-60.536 13.854-84.631 8.433-24.094 20.179-45.779 34.936-64.753s32.226-35.238 52.405-49.092c19.275-13.854 41.864-25.901 65.355-34.936 23.492-9.336 47.887-16.264 73.788-20.48 25.901-4.518 51.802-6.626 77.402-6.626 42.767 0 81.92 4.819 116.856 14.456 34.635 9.939 64.753 25.299 89.148 42.466 24.696 18.372 43.671 43.068 57.525 68.066 13.553 26.805 19.878 57.525 19.878 91.558s-5.421 61.139-16.565 86.739c-2.711 7.529-5.421 12.047-9.035 17.769h207.511v106.616z" />
<glyph unicode="&#xe909;" glyph-name="tv" d="M949.75 711h-316.5l112.25 184.25c9.75 16 4.75 37-11.25 46.75s-36.75 4.5-46.5-11.5l-134-219.5h-83.5l-134 219.5c-9.75 16-30.5 21.25-46.5 11.5s-21-30.75-11.25-46.75l112.25-184.25h-316.5c-41 0-74.25-33.5-74.25-74.5v-613c0-41 33.25-74.5 74.25-74.5h875.5c41 0 74.25 33.5 74.25 74.5v613c0 41-33.25 74.5-74.25 74.5zM718 112.5c0-22.25-18-40.25-40.25-40.25h-516.75c-22.5 0-40.5 18-40.5 40.25v435c0 22.25 18 40.25 40.5 40.25h516.75c22.25 0 40.25-18 40.25-40.25zM867.5 125.5c-38.5 0-70 31.25-70 70s31.5 70 70 70c38.75 0 70.25-31.25 70.25-70s-31.5-70-70.25-70zM867.5 394.5c-38.5 0-70 31.25-70 70s31.5 70 70 70c38.75 0 70.25-31.25 70.25-70s-31.5-70-70.25-70z" />
<glyph unicode="&#xe90a;" glyph-name="liked" d="M541.867 955.52c-13.653-5.973-20.267-10.453-30.933-21.973-22.827-23.467-32.853-48.427-50.133-125.44-4.693-21.12-12.8-43.093-13.44-48.853-2.56-5.76-12.587-19.2-22.4-30.293-9.6-10.88-36.693-43.947-60.16-73.387-23.68-29.44-50.133-61.227-59.307-70.613l-16.853-17.067h-83.84c-45.867 0-90.027-0.853-98.133-1.707-32.64-4.267-59.52-29.013-66.56-61.867-2.987-13.653-3.2-410.88 0-426.453 2.56-24.107 22.4-46.72 45.227-56.533l11.733-6.4 104.96-0.853c93.44-1.067 106.24-1.707 116.053-4.907 5.973-1.707 39.253-12.8 74.027-24.107 136.533-44.8 159.787-49.067 274.56-49.067 66.56 0 75.733 0.427 93.867 4.267 34.56 6.827 63.787 21.333 87.893 43.52 32.64 30.293 50.347 69.12 52.907 116.267 0.853 16.853 1.707 19.84 6.613 27.947 8.533 11.52 18.987 33.067 23.893 48.853 5.547 17.707 8.96 48.64 6.827 65.493-0.64 13.653-0.213 14.72 3.84 23.040 11.307 21.973 16 41.813 17.067 71.68 0.427 17.28 0 32.427-1.493 38.827-2.133 10.24-2.133 10.453 7.893 30.72 14.507 29.44 18.347 46.293 18.56 79.36 0.213 22.187-0.427 29.867-4.053 42.667-8.533 29.44-21.973 50.773-47.36 74.88-13.227 12.587-21.547 18.56-37.12 25.387-29.653 15.36-32.213 15.573-107.52 16.64-63.147 0.64-66.56 1.067-65.92 4.053 0.64 1.92 2.773 11.733 8.533 21.973 15.573 40.533 20.693 76.16 15.573 119.893-3.627 61.867-17.28 95.573-46.933 125.867-10.24 9.173-18.133 14.507-34.133 22.187-29.013 14.507-47.787 20.48-83.627 20.48-27.307 0-29.867 0-40.107-4.48zM166.827 170.667c10.667-3.84 24.533-17.28 27.307-27.307 4.693-15.36-2.987-34.56-18.773-43.307-23.68-13.653-52.907 2.133-55.040 29.867-1.28 19.413 7.68 34.56 27.733 40.747 9.387 1.707 9.813 1.707 18.773 0z" />
<glyph unicode="&#xe90b;" glyph-name="lock" d="M453.333 953.387c-74.453-9.387-135.68-34.773-170.667-69.973-14.507-14.507-23.253-28.16-29.44-46.080l-4.907-13.013v-266.24h-51.413c-58.24 0-64.64-1.067-90.24-13.867-21.333-10.667-38.613-29.227-49.28-49.707-14.72-28.587-14.72-13.867-14.72-245.973 0-231.68 0-216.747 14.507-245.12 10.88-20.693 28.16-39.253 49.493-49.92 29.013-14.72-2.133-13.653 405.333-13.653 256 0 370.773 0.427 377.813 2.133 5.333 1.067 17.92 5.76 27.52 10.453 25.387 11.947 42.24 29.013 54.187 53.973 4.693 9.813 9.387 21.76 9.813 26.667 3.84 12.587 3.84 419.2 0 431.573-0.427 4.907-5.12 16.853-9.813 26.667-11.52 23.253-28.587 42.027-50.773 52.907-25.173 12.8-31.573 13.867-90.027 13.867h-51.2v132.693c0 129.28-0.427 133.12-4.053 144.64-7.467 17.92-17.067 34.987-32.427 49.92-33.707 32.64-84.48 54.187-155.307 66.347-24.747 4.053-107.307 5.333-134.4 1.707zM570.667 864c59.733-8.32 110.933-31.573 119.467-53.333 1.28-4.693 2.133-47.147 2.133-128v-124.587h-356.693v124.587c0 138.667-0.853 128.853 14.293 142.293 24.96 21.973 80.427 38.613 140.8 42.88 17.92 1.067 59.093-0.853 80-3.84zM871.253 469.333c9.173-2.56 16-7.467 20.907-15.787 3.84-5.547 3.84-9.813 3.84-204.587v-198.187l-4.267-7.040c-2.56-3.84-7.68-8.96-11.52-11.307l-7.040-4.48-350.72-0.427c-192.853-0.427-355.2 0-360.747 0.427-12.373 1.28-20.693 7.040-26.027 16.213-3.84 6.613-3.84 8.32-3.84 204.8 0 194.773 0 199.040 3.84 204.587 4.693 7.893 11.733 13.44 20.053 15.787 8.96 1.493 706.347 1.92 715.52 0z" />
<glyph unicode="&#xe90c;" glyph-name="gif" d="M224 958.080c-66.4-14.080-105.44-35.52-146.080-76-33.92-34.080-57.44-74.56-70.4-121.44l-7.52-22.88v-579.52l7.52-22.88c12.96-46.88 36.48-87.2 70.4-121.44 34.080-33.92 74.56-57.44 121.44-70.4l22.88-6.080h579.52l22.88 6.080c46.88 12.96 87.2 36.48 121.44 70.4 33.92 34.24 57.44 74.56 70.4 121.44l6.080 22.88v579.52l-6.080 22.88c-12.96 46.88-36.48 87.36-70.4 121.44-34.080 33.44-73.28 56.64-120.16 70.4l-21.6 7.52h-286.88c-157.92 0-289.44 0-293.44-1.92zM357.12 605.6c25.28-6.4 53.76-21.76 70.88-37.92l15.36-14.56-28.16-25.12-28-27.68-9.44 11.68c-4.8 4-15.84 12-24.16 16-13.6 6.56-18.72 7.36-40.96 7.52-20.48 0-28-0.96-38.080-5.6-18.56-8.32-34.56-23.36-41.92-40.96-6.56-13.44-8.64-18.56-8.64-39.52 0-19.2 2.4-27.040 6.88-36.96 7.36-16.16 25.12-34.24 41.12-42.56 13.12-5.76 18.72-6.56 43.36-6.72 42.24 0 40.32-2.24 40.32 49.76v43.040h86.24v-132l-19.36-9.76c-54.56-26.24-111.040-36.48-156.48-26.24-91.68 20.64-148.64 105.28-130.080 193.76 12.8 60.32 64.8 112.8 125.44 126.56 21.44 4.8 71.84 3.52 95.68-2.72zM587.36 448v-161.76h-96.96v321.76h96.96zM894.56 569.28v-37.76h-153.44v-61.92h134.72v-75.52h-134.72v-107.84h-97.12v321.76h250.56z" />
<glyph unicode="&#xe90d;" glyph-name="list" d="M914.24 960h-804.48c-61.76 0-109.76-48-109.76-108v-792c0-59.68 48-108 109.76-108h804.48c60.64 0 109.76 48.32 109.76 108v792c0 60-49.12 108-109.76 108zM329.12 168h-109.76c-20.16 0-36.48 16.16-36.48 36 0 20 16.32 36 36.48 36h109.76c20.16 0 36.64-16 36.64-36 0-19.84-16.48-36-36.64-36zM329.12 420h-109.76c-20.16 0-36.48 16.16-36.48 36s16.32 36 36.48 36h109.76c20.16 0 36.64-16.16 36.64-36s-16.48-36-36.64-36zM329.12 672h-109.76c-20.16 0-36.48 16.16-36.48 36s16.32 36 36.48 36h109.76c20.16 0 36.64-16.16 36.64-36s-16.48-36-36.64-36zM804.64 168h-329.28c-20.16 0-36.48 16.16-36.48 36 0 20 16.32 36 36.48 36h329.28c20.16 0 36.48-16 36.48-36 0-19.84-16.32-36-36.48-36zM804.64 420h-329.28c-20.16 0-36.48 16.16-36.48 36s16.32 36 36.48 36h329.28c20.16 0 36.48-16.16 36.48-36s-16.32-36-36.48-36zM804.64 672h-329.28c-20.16 0-36.48 16.16-36.48 36s16.32 36 36.48 36h329.28c20.16 0 36.48-16.16 36.48-36s-16.32-36-36.48-36z" />
<glyph unicode="&#xe90e;" glyph-name="mic" d="M744.533 960c-56.32 0-111.36-17.067-157.867-49.493-5.973-3.84-9.387-9.813-10.24-16.64-0.427-6.827 1.707-14.080 6.827-18.773l355.413-355.84c4.693-4.267 10.667-6.827 17.067-6.827 0.427 0 1.28 0 2.133 0 6.827 0.853 12.8 4.267 17.067 10.24 32 46.507 49.067 101.12 49.067 157.867 0 154.027-128 279.467-279.467 279.467zM550.4 842.24c-4.693 5.12-11.093 7.253-18.773 6.827-6.827-0.853-12.8-4.267-19.627-10.24-29.44-46.507-46.507-101.12-46.507-158.293 0-154.027 125.013-275.2 279.040-275.2 57.173 0 108.8 13.227 158.293 45.227 5.973 4.267 9.387 10.24 10.24 17.067 0.427 6.827-1.707 14.080-6.827 18.773zM631.040 375.893c-88.747 33.28-161.707 102.4-191.147 191.147-2.987 8.96-13.227 13.227-17.92 14.507-8.107 1.28-16.64-1.707-21.76-5.547l-384.853-480c-1.28-1.707-2.133-3.413-2.987-5.547-8.107-11.52-12.373-24.747-12.373-37.973 0-18.773 7.253-36.267 20.48-49.493l46.507-46.507c13.227-13.227 30.72-20.48 49.493-20.48 11.52 0 26.453 4.267 38.4 12.373 1.707 0.427 3.413 1.707 5.12 2.987l477.013 384.427c2.987 5.547 9.813 13.653 8.533 22.187-1.28 8.107-6.827 14.933-14.507 17.92zM458.667 362.667l-46.507-47.36c-4.693-4.693-10.667-6.827-16.64-6.827s-11.947 2.133-16.213 6.827c-8.96 8.96-8.96 23.893 0 32.853l46.507 46.507c8.96 10.667 23.893 10.667 32.853 0 8.96-8.96 8.96-23.893 0-32z" />
<glyph unicode="&#xe90f;" glyph-name="cog" d="M998.827 543.147l-91.733 11.093c-11.093 34.56-23.040 67.84-40.533 98.133l56.747 72.533c8.96 11.093 7.68 28.16-2.133 37.973l-94.293 94.293c-9.813 9.813-26.88 11.093-38.4 2.133l-72.107-56.747c-33.707 17.92-63.573 31.573-98.133 40.533l-11.093 91.733c-1.707 13.653-14.507 25.173-28.587 25.173h-133.12c-14.080 0-27.307-11.52-28.587-25.173l-11.093-91.733c-34.56-8.96-67.84-23.040-98.133-40.533l-72.533 56.747c-11.093 8.96-28.16 7.68-37.973-2.133l-94.293-94.293c-9.813-9.813-11.093-26.88-2.133-38.4l56.747-72.107c-17.493-30.72-31.573-63.573-40.533-98.133l-91.307-11.093c-14.080-1.707-25.6-14.507-25.6-28.587v-133.12c0-14.080 11.52-27.307 25.6-28.587l91.307-11.093c9.387-34.56 23.040-64.427 40.533-98.133l-56.747-72.533c-8.533-11.093-7.68-28.16 2.133-37.973l94.293-94.293c9.813-9.813 26.88-11.093 37.973-2.56l72.533 57.173c30.293-17.92 63.573-29.44 98.133-40.96l11.093-91.307c1.707-13.653 14.507-25.173 28.587-25.173h133.12c14.080 0 27.307 11.52 28.587 25.173l11.093 91.307c34.56 11.52 64.427 23.040 98.133 40.96l72.533-56.747c11.093-8.96 28.16-7.68 37.973 2.133l94.293 94.293c9.813 9.813 11.093 26.88 2.133 38.4l-56.747 72.107c17.493 33.707 29.44 63.573 40.533 98.133l91.307 11.093c14.080 1.28 25.6 14.507 25.6 28.587v133.12c0 14.080-11.52 26.88-25.173 28.587zM512 192c-141.227 0-256 114.773-256 256s114.773 256 256 256c141.653 0 256-114.773 256-256s-114.347-256-256-256z" />
<glyph unicode="&#xe910;" glyph-name="minimize_fullscreen" d="M976.96 544h-232.64c-76.8 0-139.52 59.84-139.52 136.96v232.64c0 25.6 20.8 46.4 46.4 46.4 25.92 0 46.4-20.8 46.4-46.4v-232.64c0-25.6 21.12-46.72 46.72-46.72h232.64c25.6 0 46.4-20.8 46.4-46.4s-20.8-43.84-46.4-43.84zM651.2-63.36c-25.6 0-46.4 20.8-46.4 46.4v232.64c0 76.8 62.72 139.52 139.52 139.52h232.64c25.6 0 46.4-20.8 46.4-46.4 0-25.92-20.8-46.4-46.4-46.4h-232.64c-25.6 0-46.72-21.12-46.72-46.72v-232.64c0-25.6-20.48-46.4-46.4-46.4zM279.040 544h-232.64c-25.6 0-46.4 18.24-46.4 43.84s20.8 46.4 46.4 46.4h232.64c25.6 0 46.72 21.12 46.72 46.72v232.64c0 25.6 20.48 46.4 46.4 46.4 25.6 0 43.84-20.8 43.84-46.4v-232.64c0-77.12-59.84-136.96-136.96-136.96zM372.16-63.36c-25.92 0-46.4 20.8-46.4 46.4v232.64c0 25.6-21.12 46.72-46.72 46.72h-232.64c-25.6 0-46.4 20.48-46.4 46.4 0 25.6 20.8 46.4 46.4 46.4h232.64c77.12 0 136.96-62.72 136.96-139.52v-232.64c0-25.6-18.24-46.4-43.84-46.4z" />
<glyph unicode="&#xe911;" glyph-name="trash" d="M344.96 866.987c0 30.507 23.893 52.693 54.4 52.693h223.36c30.507 0 54.187-22.187 54.187-52.693v-56.32h40.32v56.32c0 52.693-41.813 93.013-94.507 93.013h-223.36c-52.693 0-94.507-40.32-94.507-93.013v-56.32h40.107zM273.067-63.573h475.947c45.653 0 81.28 42.24 81.28 90.667v621.013h-638.72v-621.013c0-48.427 35.627-90.667 81.493-90.667zM639.147 552.107c0 11.093 9.173 20.053 20.267 20.053s20.053-8.96 20.053-20.053v-475.307c0-11.093-8.96-20.053-20.053-20.053s-20.267 8.96-20.267 20.053zM490.667 552.107c0 11.093 9.173 20.053 20.267 20.053s20.053-8.96 20.053-20.053v-475.307c0-11.093-8.96-20.053-20.053-20.053s-20.267 8.96-20.267 20.053zM341.333 552.107c0 11.093 10.24 20.053 21.333 20.053s20.053-8.96 20.053-20.053v-475.307c0-11.093-8.96-20.053-20.053-20.053s-21.333 8.96-21.333 20.053zM170.667 688.427h680.32c27.733 0 50.347 22.4 50.347 50.133 0 29.44-22.613 50.773-50.347 50.773h-680.32c-27.52 0-49.92-21.333-49.92-50.773 0-27.733 22.4-50.133 49.92-50.133z" />
<glyph unicode="&#xe912;" glyph-name="group_add" d="M1024 104h-168v-168h-80v168h-168v80h168v168h80v-168h168zM598.56 513.12c3.52-15.84 5.44-32.32 5.44-49.12 0-69.12-31.2-131.040-80.16-172.64 1.28-0.48 2.72-0.96 4.16-1.6v-88.32c-42.88 23.36-91.84 36.48-144 36.48v0.16c-0.64 0-1.28 0-1.92 0v-0.16c-166.56 0-302.080-135.36-302.080-301.92h-80c0 160 96 295.2 235.36 352.8-50.72 41.44-83.36 104.64-83.36 175.2 0 124.64 101.44 225.92 226.080 225.92 14.72 0 29.28-1.28 43.2-4.16-3.36 15.68-5.28 32-5.28 50.24 0 122.88 101.12 224 224 224 125.76 0 227.040-101.12 227.040-224 0-71.2-31.84-133.76-83.040-175.2 67.2-26.24 124.16-70.24 165.76-126.88h-107.68c-49.76 44.16-113.92 72-184.48 75.68-5.28-0.32-10.72-0.64-17.6-0.64-13.12 0-27.52 1.44-41.44 4.16zM496 736c0-81.76 64-147.040 144-147.040 81.76 0 147.040 65.28 147.040 147.040 0 80-65.28 144-147.040 144-80 0-144-64-144-144zM524 464c0 80.48-65.44 145.92-145.92 145.92-80.64 0-146.080-65.44-146.080-145.92 0-80 65.44-146.080 146.080-146.080 80.48 0 145.92 66.080 145.92 146.080z" />
<glyph unicode="&#xe913;" glyph-name="quote" d="M355.627 896h-227.627c-70.613 0-128-64-128-144v-224c0-79.36 57.387-144 128-144h99.627v-16c0-44.16-31.787-80-71.253-80h-14.080c-47.147 0-85.333-43.093-85.333-96v-96c0-52.907 38.187-96 85.333-96h14.080c180.48 0 327.253 164.907 327.253 368v384c0 80-57.387 144-128 144zM398.293 368c0-149.973-108.587-272-241.92-272h-14.080v96h14.080c86.4 0 156.587 78.933 156.587 176v112h-184.96c-23.467 0-42.667 21.547-42.667 48v224c0 26.453 19.2 48 42.667 48h227.627c23.467 0 42.667-21.547 42.667-48zM896 896h-227.627c-71.040 0-128-64-128-144v-224c0-79.36 56.96-144 128-144h99.627v-16c0-44.16-31.787-80-71.040-80h-14.293c-47.147 0-85.333-43.093-85.333-96v-96c0-52.907 38.187-96 85.333-96h14.293c180.48 0 327.040 164.907 327.040 368v384c0 80-57.387 144-128 144zM938.667 368c0-149.973-108.373-272-241.707-272h-14.293v96h14.293c86.187 0 156.373 78.933 156.373 176v112h-184.96c-23.467 0-42.667 21.547-42.667 48v224c0 26.453 19.2 48 42.667 48h227.627c23.467 0 42.667-21.547 42.667-48z" />
<glyph unicode="&#xe914;" glyph-name="fullscreen" d="M349.12 960h-325.76c-13.12 0-23.36-10.24-23.36-23.36v-325.76c0-12.8 10.24-23.36 23.36-23.36h46.4c12.8 0 23.36 10.56 23.36 23.36v256h256c12.8 0 23.36 10.56 23.36 23.36v46.4c0 13.12-10.56 23.36-23.36 23.36zM1000.64 960h-328.64c-9.92 0-20.48-10.24-20.48-23.36v-46.4c0-12.8 10.56-23.36 20.48-23.36h256v-256c0-12.8 13.44-23.36 26.24-23.36h46.4c13.12 0 23.36 10.56 23.36 23.36v325.76c0 13.12-10.24 23.36-23.36 23.36zM1000.64 308.48h-46.4c-12.8 0-26.24-10.56-26.24-20.48v-256h-256c-9.92 0-20.48-13.44-20.48-26.24v-46.4c0-13.12 10.56-23.36 20.48-23.36h328.64c13.12 0 23.36 10.24 23.36 23.36v328.64c0 9.92-10.24 20.48-23.36 20.48zM349.12 32h-256v256c0 9.92-10.56 20.48-23.36 20.48h-46.4c-13.12 0-23.36-10.56-23.36-20.48v-328.64c0-13.12 10.24-23.36 23.36-23.36h325.76c12.8 0 23.36 10.24 23.36 23.36v46.4c0 12.8-10.56 26.24-23.36 26.24z" />
<glyph unicode="&#xe915;" glyph-name="news" d="M911.573 754.56c-1.92 4.48-4.693 8.533-8.107 13.44l-182.827 181.333c-6.827 6.827-16.64 10.667-25.813 10.667h-548.48c-20.267 0-36.693-16.427-36.693-36.48v-951.040c0-20.053 16.427-36.48 36.693-36.48h731.307c18.347 0 36.693 16.427 36.693 36.48v768c0 6.187-1.067 9.6-2.773 14.080zM731.52 118.827h-439.040c-20.053 0-36.48 16.427-36.48 36.693 0 20.053 16.427 36.48 36.48 36.48h439.040c20.053 0 36.48-16.427 36.48-36.48 0-20.267-16.427-36.693-36.48-36.693zM731.52 265.173h-439.040c-20.053 0-36.48 16.427-36.48 36.48 0 20.267 16.427 36.693 36.48 36.693h439.040c20.053 0 36.48-16.427 36.48-36.693 0-20.053-16.427-36.48-36.48-36.48zM731.52 411.52h-439.040c-20.053 0-36.48 16.213-36.48 36.48 0 21.333 16.427 36.48 36.48 36.48h439.040c20.053 0 36.48-15.147 36.48-36.48 0-20.267-16.427-36.48-36.48-36.48zM731.52 557.653h-439.040c-20.053 0-36.48 18.347-36.48 36.693 0 20.053 16.427 36.48 36.48 36.48h439.040c20.053 0 36.48-16.427 36.48-36.48 0-18.347-16.427-36.693-36.48-36.693zM731.52 777.173v58.027l57.813-58.027z" />
<glyph unicode="&#xe916;" glyph-name="error" d="M512 960c-282.24 0-512-229.76-512-512s229.76-512 512-512c282.24 0 512 229.76 512 512s-229.76 512-512 512zM512-21.28c-258.88 0-469.28 210.4-469.28 469.28s210.4 469.28 469.28 469.28c258.88 0 469.28-210.4 469.28-469.28s-210.4-469.28-469.28-469.28zM384 576c0-23.52-19.2-42.72-42.72-42.72s-42.56 19.2-42.56 42.72c0 23.52 19.040 42.72 42.56 42.72s42.72-19.2 42.72-42.72zM725.28 576c0-23.52-19.040-42.72-42.56-42.72s-42.72 19.2-42.72 42.72c0 23.52 19.2 42.72 42.72 42.72s42.56-19.2 42.56-42.72zM512 320v0c-179.36 0-248.8-90.080-251.68-93.92-7.040-9.28-5.12-22.56 4.16-29.6 9.28-7.2 22.72-4.48 29.76 4 2.56 3.040 61.28 76.8 217.76 76.8v0c156.48 0 215.2-73.76 217.6-76.8 4.16-5.6 10.56-8.48 17.12-8.48 4.48 0 8.96 1.44 12.8 4.32 8.48 7.040 11.36 20.32 4.16 29.76-2.88 3.84-72.48 93.92-251.68 93.92z" />
<glyph unicode="&#xe917;" glyph-name="lock_filled" d="M453.333 953.387c-74.453-9.387-135.68-34.773-170.667-69.973-14.507-14.507-23.253-28.16-29.44-46.080l-4.907-13.013v-266.24h-51.627c-58.88 0-64.427-1.067-90.027-13.653-21.333-10.88-38.613-29.227-49.493-50.133-14.507-28.373-14.507-13.227-14.507-245.12 0-232.107 0-217.387 14.72-245.76 10.453-20.48 27.947-39.040 49.28-49.707 29.44-15.147-4.48-13.867 405.333-13.867 256 0 370.773 0.427 377.813 2.133 5.333 1.067 17.92 5.76 27.52 10.453 25.387 11.947 42.24 29.013 54.187 53.973 4.693 9.813 9.387 21.76 9.813 26.667 3.84 12.587 3.84 419.2 0 431.573-0.427 4.907-5.12 16.853-9.813 26.667-11.52 23.253-28.587 42.027-50.773 52.907-25.173 12.8-31.573 13.867-90.027 13.867h-51.2v132.693c0 129.28-0.427 133.12-4.053 144.64-7.467 17.92-17.067 34.987-32.427 49.92-33.707 32.64-84.48 54.187-155.307 66.347-24.747 4.053-107.307 5.333-134.4 1.707zM570.667 864c59.733-8.32 110.933-31.573 119.467-53.333 1.28-4.693 2.133-47.147 2.133-128v-124.587h-356.693v124.587c0 138.667-0.853 128.853 14.293 142.293 24.96 21.973 80.427 38.613 140.8 42.88 17.92 1.067 59.093-0.853 80-3.84z" />
<glyph unicode="&#xe918;" glyph-name="happy" d="M874.72 810.080c-199.84 199.84-524.96 199.84-724.8 0-200-199.84-199.84-524.96 0-724.8s524.96-199.84 724.8 0c199.84 199.84 199.84 524.96 0 724.8zM818.88 141.12c-169.12-168.96-444-168.96-613.12 0-168.96 169.12-168.96 444.16 0 613.12 169.12 168.96 444 168.96 613.12 0 168.96-169.12 168.96-444 0-613.12zM320 586.4c0 33.12 28 59.84 60.96 59.84 33.12 0 60-26.72 60-59.84s-26.88-58.4-60-58.4c-32.96 0-60.96 25.28-60.96 58.4zM592 586.4c0 33.12 27.52 59.84 60.64 59.84s60-26.72 60-59.84c0-33.12-26.88-58.4-60-58.4s-60.64 25.28-60.64 58.4zM734.4 341.12c-37.12-85.12-124.16-141.44-222.4-141.44-98.56 0-186.080 56.32-221.92 142.080-6.080 14.88 0.8 31.68 15.68 37.92 3.68 1.44 7.36 2.24 11.040 2.24 11.36 0 22.080-6.72 26.72-17.92 26.88-64.64 93.28-106.24 168.48-106.24s141.12 41.6 169.12 106.24c6.4 14.72 22.88 21.6 38.080 15.2 14.72-6.4 21.44-23.52 15.2-38.080z" />
<glyph unicode="&#xe919;" glyph-name="star_outline" d="M229.12-42.667c-11.093 0-22.187 3.413-32 10.24-17.493 12.8-26.453 34.56-20.907 55.893l65.707 290.133-223.147 195.84c-18.773 14.507-18.773 37.12-18.773 58.027 9.387 20.48 27.733 35.413 49.493 37.547l291.84 26.453 120.32 273.493c7.68 20.053 28.16 32.853 50.347 32.853 21.76 0 40.96-12.8 49.92-32.853l116.907-273.493 295.253-26.453c21.76-2.133 40.107-17.067 46.933-37.547 2.987-20.907 0.427-43.52-16.213-58.027l-223.147-195.84 65.707-290.133c5.12-21.333-2.987-43.093-20.907-55.893s-41.387-14.080-59.733-2.56l-254.72 152.32-256-152.32c-7.68-5.547-17.067-7.68-26.88-7.68zM512 183.040c9.387 0 19.2-2.987 27.733-8.107l240.64-143.787-62.293 273.92c-4.693 19.627 2.133 39.68 17.067 52.907l211.2 185.173-279.040 25.173c-20.48 1.707-37.547 14.507-45.227 32.853l-110.080 258.133-110.507-258.133c-7.68-18.347-25.173-31.147-44.8-32.853l-279.040-25.173 210.773-185.173c14.933-13.227 21.76-33.28 17.067-52.907l-61.867-273.92 240.213 143.787c8.533 5.12 18.347 8.107 28.16 8.107zM341.333 626.347c0 0 0 0 0 0zM680.96 626.347v0c0 0 0 0 0 0z" />
<glyph unicode="&#xe91a;" glyph-name="unlock_filled" d="M453.333 953.387c-74.453-9.387-135.68-34.773-170.667-69.973-14.507-14.507-23.253-28.16-29.44-46.080l-4.907-13.013v-266.24h-51.627c-58.88 0-64.427-1.067-90.027-13.653-21.333-11.093-38.613-29.227-49.493-50.133-14.507-28.373-14.507-13.227-14.507-245.12 0-232.107 0-217.387 14.72-245.76 10.453-20.48 27.947-39.040 49.28-49.707 29.44-15.147-4.48-13.867 405.333-13.867 256 0 370.773 0.427 377.813 2.133 5.333 1.067 17.92 5.76 27.52 10.453 25.387 11.947 42.24 29.013 54.187 53.973 4.693 9.813 9.387 21.76 9.813 26.667 3.84 12.587 3.84 419.2 0 431.573-0.427 4.907-5.12 16.853-9.813 26.667-11.52 23.253-28.587 42.027-50.773 52.907-29.013 14.72-6.4 13.867-311.893 13.867h-273.28v124.587c0 138.667-0.853 128.853 14.293 142.293 29.867 26.24 93.227 42.667 162.133 42.453 52.053 0 90.24-6.4 128-21.12 29.227-11.093 45.227-24.107 55.893-45.867 14.080-27.52 29.44-36.48 53.973-29.653 10.24 2.987 24.747 18.56 27.52 27.307 7.040 25.813-6.4 60.16-34.347 87.253-33.707 32.64-84.48 54.187-155.307 66.347-24.747 4.053-107.307 5.333-134.4 1.707z" />
<glyph unicode="&#xe91b;" glyph-name="audio" d="M522.795-10.667c-7.083 0-14.080 2.347-19.883 6.912l-300.672 238.421h-106.069c-52.907 0-96 43.093-96 96v234.667c-0.043 52.907 43.051 96 95.957 96h106.112l300.672 238.421c9.6 7.68 22.741 9.173 33.792 3.712 11.008-5.333 18.048-16.512 18.048-28.8v-853.333c0-12.288-7.040-23.467-18.091-28.8-4.437-2.133-9.216-3.2-13.952-3.2zM96.128 597.333c-17.621 0-32-14.379-32-32v-234.667c0-17.621 14.379-32 32-32h117.333c7.253 0 14.208-2.475 19.883-6.912l257.408-204.203v720.896l-257.365-204.203c-5.717-4.437-12.715-6.912-19.925-6.912h-117.333zM707.541 246.357c-13.141 0-25.429 8.107-30.080 21.12-5.973 16.64 2.56 34.901 19.2 40.96 58.581 21.12 97.963 77.227 97.963 139.52s-39.381 118.357-97.963 139.52c-16.64 5.973-25.259 24.32-19.2 40.96 5.973 16.64 24.32 25.173 40.875 19.2 83.925-30.165 140.288-110.507 140.288-199.68s-56.32-169.472-140.203-199.68c-3.584-1.28-7.253-1.963-10.88-1.963zM760.32 100.907c-13.056 0-25.344 8.107-30.037 21.12-5.973 16.64 2.56 34.987 19.2 40.96 119.552 43.264 199.851 157.781 199.851 285.013 0 127.147-80.341 241.707-199.851 285.013-16.64 5.973-25.259 24.32-19.2 40.96 5.973 16.64 24.448 25.173 40.96 19.2 144.811-52.48 242.091-191.147 242.091-345.173s-97.28-292.779-242.091-345.173c-3.584-1.28-7.253-1.92-10.88-1.92z" />
<glyph unicode="&#xe91c;" glyph-name="link" d="M424.48 179.52l-120.64-120.64c-50.080-50.080-131.040-50.080-180.96 0-50.080 49.92-50.080 131.040 0 181.12l241.28 241.12c50.080 50.080 131.040 50.080 179.84 0 17.92-16.48 44.8-16.48 61.44 0 16.8 16.8 16.8 43.68 0 60.48-83.2 83.2-218.24 83.2-301.6 0l-241.28-241.44c-83.36-83.36-83.36-218.4 0-300.16 83.2-84.8 218.24-84.8 301.6 0l120.64 119.2c16.64 16.64 16.64 43.68 0 60.32s-43.68 16.64-60.32 0zM960 897.44c-81.76 83.36-216.8 83.36-300.16 0l-144.8-144.64c-16.64-16.8-16.64-43.68 0-60.32 16.64-16.8 43.68-16.8 60.32 0l144.64 144.64c50.080 50.080 131.2 50.080 181.12 0 50.080-49.92 50.080-130.88 0-180.96l-265.44-265.44c-49.92-49.92-131.040-49.92-180.96 0-16.64 16.64-43.68 16.64-60.32 0s-16.64-43.68 0-60.32c83.36-83.36 218.4-83.36 301.6 0l264 265.44c84.8 83.36 84.8 218.4 0 301.6z" />
<glyph unicode="&#xe91d;" glyph-name="website" d="M906.88 0h-790.613c-64.213 0-116.267 50.133-116.267 114.133v670.507c0 64 52.053 116.053 116.267 116.053h790.613c64 0 116.053-52.053 116.053-116.053v-670.507c0-64-52.053-114.133-116.053-114.133zM116.267 866.133c-45.013 0-81.707-36.693-81.707-81.493v-670.507c0-45.013 36.693-81.493 81.707-81.493h790.613c45.013 0 81.493 36.48 81.493 81.493v670.507c0 44.8-36.48 81.493-81.493 81.493zM1005.653 669.013h-988.373c-9.6 0-17.28 7.893-17.28 17.493 0 9.387 7.68 17.493 17.28 17.493h988.373c9.6 0 17.28-8.107 17.28-17.493 0-9.6-7.68-17.493-17.28-17.493zM149.333 533.333h704v-42.667h-704v42.667zM149.333 384h704v-42.667h-704v42.667zM149.333 213.333h704v-42.667h-704v42.667zM160 778.667c0-17.673-14.327-32-32-32s-32 14.327-32 32c0 17.673 14.327 32 32 32s32-14.327 32-32zM288 778.667c0-17.673-14.327-32-32-32s-32 14.327-32 32c0 17.673 14.327 32 32 32s32-14.327 32-32zM416 778.667c0-17.673-14.327-32-32-32s-32 14.327-32 32c0 17.673 14.327 32 32 32s32-14.327 32-32z" />
<glyph unicode="&#xe91e;" glyph-name="code" d="M1013.547 474.24l-236.8 251.093c-14.507 15.36-38.827 16-54.4 1.493-15.36-14.507-16-38.827-1.493-54.4l212.053-224.427-212.053-224.427c-14.507-15.573-13.867-39.893 1.493-52.907 7.467-8.533 17.067-11.947 26.453-11.947 10.24 0 19.2 4.053 27.947 11.947l236.8 250.88c13.867 14.933 13.867 37.973 0 52.693zM303.147 223.573l-211.84 224.427 211.84 224.427c14.507 15.573 13.867 39.893-1.493 54.4-15.573 14.507-39.893 13.867-54.4-1.493l-236.8-251.093c-13.867-14.72-13.867-37.76 0-52.48l236.8-251.093c7.68-7.893 17.707-11.947 27.947-11.947 9.387 0 18.987 3.413 26.453 11.947 15.36 13.013 16 37.333 1.493 52.907zM574.080 854.613c-20.907 3.2-40.747-11.093-43.733-32.213l-112.64-737.067c-3.2-21.12 11.307-40.747 30.293-42.667 3.84 0 5.76 0 7.68 0 18.773 0 34.987 11.947 37.973 30.933l112.64 737.28c3.2 21.12-11.307 42.453-32.213 43.733z" />
<glyph unicode="&#xe91f;" glyph-name="hidden" d="M504.107 610.133l146.56-146.56 0.853 7.68c0 77.013-62.507 139.52-139.52 139.52zM512 704c128 0 232.533-104.32 232.533-232.747 0-30.080-5.973-58.667-16.427-84.907l136.107-136.107c70.187 58.667 125.653 134.613 159.787 221.013-80.853 204.373-279.253 349.013-512 349.013-65.28 0-128-9.6-185.6-30.933l100.267-101.973c26.667 10.24 55.253 16.64 85.333 16.64zM46.507 832l106.24-106.667 21.12-21.333c-76.8-60.587-137.6-140.373-173.867-232.747 80.427-204.16 277.333-349.013 512-349.013 72.107 0 141.013 14.080 203.947 39.253l19.84-19.627 135.467-135.893 59.52 59.093-824.96 824.96zM303.787 573.653l71.893-71.893c-1.92-10.027-3.413-20.053-3.413-30.507 0-77.013 62.507-139.52 139.733-139.52 10.24 0 20.267 1.28 30.080 3.413l71.893-71.893c-30.933-15.36-65.28-24.747-101.973-24.747-128.64 0-234.667 104.32-234.667 232.747 0 36.693 11.093 71.253 26.453 102.4z" />
<glyph unicode="&#xe920;" glyph-name="copy" d="M731.52 777.173h-621.867c-60.587 0-109.653-49.28-109.653-109.653v-621.867c0-60.587 49.067-109.653 109.653-109.653h621.867c60.587 0 109.653 49.067 109.653 109.653v621.867c0 60.373-49.067 109.653-109.653 109.653zM768 45.653c0-20.053-16.427-36.48-36.48-36.48h-621.867c-20.053 0-36.48 16.427-36.48 36.48v621.867c0 20.053 16.427 36.48 36.48 36.48h621.867c20.053 0 36.48-16.427 36.48-36.48zM914.347 960h-658.347c-60.587 0-109.653-49.067-109.653-109.653 0-18.347 16.427-36.693 36.48-36.693 20.267 0 36.693 18.347 36.693 36.693 0 20.053 15.147 36.48 36.48 36.48h658.347c20.053 0 36.48-16.427 36.48-36.48v-658.347c0-20.267-16.427-36.48-36.48-36.48-20.267 0-36.693-16.427-36.693-36.693s16.427-36.48 36.693-36.48c60.587 0 109.653 49.067 109.653 109.653v658.347c0 60.587-49.067 109.653-109.653 109.653z" />
<glyph unicode="&#xe921;" glyph-name="missing" d="M368.396 960l-214.796-214.796v-809.204h716.8v1024zM358.4 901.73v-146.53h-146.53zM836.267-29.867h-648.533v750.933h204.8v204.8h443.733zM423.741 554.545l-48.274-48.274-48.274 48.274-24.137-24.137 48.274-48.274-48.274-48.274 24.137-24.137 48.274 48.274 48.274-48.274 24.137 24.137-48.274 48.274 48.274 48.274zM583.192 409.722l48.274 48.274 48.274-48.274 24.137 24.137-48.274 48.274 48.274 48.274-24.137 24.137-48.274-48.274-48.274 48.274-24.137-24.137 48.274-48.274-48.274-48.274zM363.398 255.269l24.137-24.137 14.75 15.848c60.952 59.855 158.232 59.855 218.331 0l15.848-15.848 24.137 24.137-15.848 15.848c-73.387 73.265-192.122 73.265-265.509 0z" />
<glyph unicode="&#xe922;" glyph-name="audio_mute" d="M881.237 448l129.365 129.365c12.501 12.501 12.501 32.768 0 45.227s-32.768 12.544-45.227 0l-129.408-129.28-129.365 129.28c-12.459 12.544-32.725 12.544-45.227 0s-12.501-32.725 0-45.227l129.365-129.365-129.408-129.365c-12.459-12.501-12.459-32.768 0-45.227 6.272-6.272 14.507-9.387 22.613-9.387s16.427 3.072 22.613 9.387l129.408 129.28 129.365-129.28c6.229-6.272 14.421-9.387 22.613-9.387s16.384 3.072 22.613 9.387c12.501 12.459 12.501 32.725 0 45.227l-129.28 129.365zM522.795-10.667c-7.083 0-14.080 2.347-19.883 6.912l-300.672 238.421h-106.069c-52.907 0-96 43.093-96 96v234.667c-0.043 52.907 43.051 96 95.957 96h106.112l300.672 238.421c9.6 7.68 22.741 9.173 33.792 3.712 11.008-5.333 18.048-16.512 18.048-28.8v-853.333c0-12.288-7.040-23.467-18.091-28.8-4.437-2.133-9.216-3.2-13.952-3.2zM96.128 597.333c-17.621 0-32-14.379-32-32v-234.667c0-17.621 14.379-32 32-32h117.333c7.253 0 14.208-2.475 19.883-6.912l257.408-204.203v720.896l-257.365-204.203c-5.717-4.437-12.715-6.912-19.925-6.912h-117.333z" />
<glyph unicode="&#xe923;" glyph-name="ul_list" d="M78.005 839.529c-43.068 0-78.005-35.84-78.005-78.908 0-41.562 34.936-78.005 78.005-78.005 42.466 0 78.306 36.442 78.306 78.005 0 43.068-35.84 78.908-78.306 78.908zM78.005 526.005c-43.068 0-78.005-34.635-78.005-78.005s34.936-78.005 78.005-78.005c42.466 0 78.306 34.635 78.306 78.005s-35.84 78.005-78.306 78.005zM78.005 213.384c-43.369 0-78.005-34.936-78.005-78.005 0-42.767 35.238-78.005 78.005-78.005 42.466 0 78.306 35.238 78.306 78.005 0 43.068-35.84 78.005-78.306 78.005zM234.616 187.482h729.148v-104.207h-729.148zM234.616 812.725h729.148v-104.207h-729.148zM234.616 500.104h729.148v-104.207h-729.148z" />
<glyph unicode="&#xe924;" glyph-name="sort" d="M992 683.52l-240.64 240.64c-15.68 15.68-40.96 15.68-56.96 0l-240.64-240.64c-15.68-16-15.68-41.28 0-57.28 16-15.68 41.28-15.68 56.96 0l171.52 173.76v-707.84c0-22.4 18.24-40.64 40.64-40.64 22.72 0 40.96 18.24 40.96 40.64v707.84l171.52-173.76c15.68-15.68 40.96-15.68 56.64 0 16 15.68 16 41.28 0 57.28zM574.4 265.6c-16 15.68-41.28 15.68-57.28 0l-171.52-169.6v704c0 22.4-17.92 40.64-40.64 40.64s-40.64-18.24-40.64-40.64v-704l-171.52 169.6c-15.68 15.68-41.28 15.68-56.96 0-15.68-16-15.68-41.28 0-56.96l240.64-240.64c16-16 41.28-16 57.28 0l240.64 240.64c15.68 15.68 15.68 41.28 0 56.96z" />
<glyph unicode="&#xe925;" glyph-name="shop" d="M798.72 905.44h-314.4c-20.32 0-39.040-7.84-53.12-21.92l-409.12-409.28c-29.44-29.28-29.44-76.8 0-106.080l313.92-314.4c29.76-29.44 77.28-29.44 106.56 0l409.28 410.24c14.080 12.96 21.92 32.16 21.92 52v314.4c0 41.44-33.6 75.040-75.040 75.040zM667.36 642.72c-31.040 0-56.32 25.28-56.32 56.32s25.28 56.32 56.32 56.32c31.040 0 56.32-25.28 56.32-56.32s-25.28-56.32-56.32-56.32zM948.96 830.4l-0.16-349.6c0-16.8-6.72-32.8-19.040-46.080l-415.84-415.84 6.4-6.4c29.28-28.48 76.8-28.48 106.080 0l375.52 375.52c14.080 13.92 22.080 33.12 22.080 52.96v314.4c0 41.44-33.6 75.040-75.040 75.040z" />
<glyph unicode="&#xe926;" glyph-name="chat" d="M857.28 3.2l-91.68 61.44c-139.68-25.76-285.6 27.36-356.32 127.36-29.6 40.8-45.28 88-45.28 136 0 148.8 148 269.92 330.080 269.92 70.24 0 137.44-17.76 194.56-51.52 84.8-50.4 135.36-132.32 135.36-218.4 0-80.48-44.48-157.28-120-208.48v-91.52c0-24.16-27.040-38.24-46.72-24.8zM304 328c0 181.92 174.88 329.92 390.080 329.92 71.36 0 140-16.96 200.8-47.68-41.92 164-223.68 287.68-440.8 287.68-248.16 0-454.080-161.28-454.080-360 0-92 46.56-178.56 124-245.12v-144.8c0-24.16 26.88-38.080 46.56-24.96l119.36 79.52c16.16-4.96 32.96-8.32 49.6-10.56-23.2 41.92-35.52 88.64-35.52 136z" />
<glyph unicode="&#xe927;" glyph-name="ol_list" d="M0 194.409h101.496v-25.299h-50.899v-50.899h50.899v-25.299h-101.496v-50.598h150.588v202.692h-150.588zM50.598 650.993h50.899v202.692h-101.496v-50.598h50.598zM0 498.598h90.353l-90.353-106.315v-45.779h150.588v50.899h-90.353l90.353 106.315v45.779h-150.588zM253.591 194.409h710.174v-101.496h-710.174zM253.591 803.087h710.174v-101.496h-710.174zM253.591 498.598h710.174v-101.195h-710.174z" />
<glyph unicode="&#xe928;" glyph-name="comment" d="M736.213-42.667c-10.88 0-18.133 2.987-25.387 8.96l-265.813 218.453h-349.227c-53.12 0-95.787 44.16-95.787 97.92v580.48c0 54.187 42.667 96.853 95.787 96.853h832c53.12 0 96.213-42.667 96.213-96.853v-580.48c0-53.76-43.093-97.92-96.213-97.92h-151.893v-187.52c0-15.36-8.747-29.44-22.827-36.053-6.4-2.56-10.88-3.84-16.853-3.84zM95.787 879.573c-8.32 0-15.36-7.040-15.36-16.427v-580.48c0-9.6 7.040-18.133 15.36-18.133h363.307c9.387 0 18.347-2.987 25.387-8.533l211.627-174.080v143.147c0 21.973 18.133 39.467 40.107 39.467h191.573c8.533 0 16.213 8.96 16.213 18.133v580.48c0 9.173-7.467 16.427-16.213 16.427z" />
<glyph unicode="&#xe929;" glyph-name="more" d="M512 960c-282.24 0-512-229.76-512-512s229.76-512 512-512c282.24 0 512 229.76 512 512s-229.76 512-512 512zM263.68 370.4c-42.72 0-77.44 34.88-77.44 77.6s34.72 77.6 77.44 77.6c42.88 0 77.6-34.88 77.6-77.6s-34.72-77.6-77.6-77.6zM512 370.4c-42.72 0-77.6 34.88-77.6 77.6s34.88 77.6 77.6 77.6c42.72 0 77.6-34.88 77.6-77.6s-34.88-77.6-77.6-77.6zM760.32 370.4c-42.88 0-77.6 34.88-77.6 77.6s34.72 77.6 77.6 77.6c42.72 0 77.44-34.88 77.44-77.6s-34.72-77.6-77.44-77.6z" />
<glyph unicode="&#xe92a;" glyph-name="back" d="M962.389 519.851c-4.096 0.683-8.363 1.024-12.629 1.024h-722.432l15.872 7.339c15.36 7.168 29.355 17.067 41.301 29.184l202.581 202.581c26.795 25.429 31.232 66.56 10.581 97.621-23.893 32.085-70.997 39.253-102.4 15.36-2.731-1.877-5.12-4.096-7.509-6.315l-366.251-366.421c-28.672-28.501-28.672-74.923-0.171-103.424 0.171 0 0.171 0 0.171 0l366.251-366.592c28.672-28.501 75.093-28.331 103.765 0.341 2.219 2.048 3.413 4.437 6.144 7.851 20.651 29.867 16.213 70.827-10.581 96.256l-202.24 203.093c-11.776 10.581-23.040 19.627-36.523 26.624l-22.016 9.899h719.36c37.547-1.365 70.315 24.747 77.483 61.611 6.315 39.936-20.821 77.483-60.757 83.968z" />
<glyph unicode="&#xe92b;" glyph-name="rich_text" d="M760.96-64h-497.92v42.4c21.92 7.84 44 14.56 66.4 21.6 22.4 4.8 46.56 9.6 72.32 13.6v870.4h-188.8l-79.040-209.28h-37.92c-2.24 19.52-4.8 41.76-6.88 66.56-1.92 24.8-3.68 50.080-5.12 76.16-1.6 25.6-4 51.2-4 76-0.8 24.64-1.28 47.040-1.28 66.56h865.28c0-19.52 0-41.6-0.32-65.92-0.96-24.32-2.24-49.44-3.84-75.2-1.6-25.92-2.88-50.88-4.48-76.16-1.44-24.8-3.68-47.52-7.36-68h-38.56l-78.4 209.28h-187.36v-870.56c25.76-4.8 50.080-9.76 72.32-13.44 22.4-6.080 44-12.8 64.96-21.76z" />
<glyph unicode="&#xe92c;" glyph-name="select" d="M273.28 504.96h477.44c17.28 0 37.44 10.56 46.4 27.52 8.96 17.28 7.68 37.76-3.2 53.76l-241.92 353.6c-8.64 12.48-23.040 20.16-40 20.16-13.76 0-27.84-7.36-36.8-20.16l-244.8-353.28c-11.2-16-12.48-36.8-6.4-53.76 12.16-17.28 29.76-27.84 49.28-27.84zM750.72 391.040h-477.44c-19.52 0-37.12-10.56-49.28-27.84-6.080-16.96-4.8-37.76 6.4-53.76l244.8-353.6c8.96-12.48 23.040-19.84 36.8-19.84 16.96 0 31.36 7.68 40 20.16l241.92 353.6c10.88 16 12.16 36.48 3.2 53.76-8.96 16.96-29.12 27.52-46.4 27.52z" />
<glyph unicode="&#xe92d;" glyph-name="verified" d="M873.92 809.92c-96.64 96.96-225.28 150.080-361.92 150.080s-265.28-53.12-361.92-150.080c-96.96-96.64-150.080-225.28-150.080-361.92s53.12-265.28 150.080-361.92c96.64-96.96 225.28-150.080 361.92-150.080s265.28 53.12 361.92 150.080c96.96 96.64 150.080 225.28 150.080 361.92s-53.12 265.28-150.080 361.92zM756.48 569.92l-286.080-286.080c-5.76-6.080-13.44-8.96-22.4-8.96-6.4 0-14.080 2.88-19.84 8.96l-160.64 160.64c-11.84 11.52-11.84 30.72 0 42.24 11.52 11.84 30.72 11.84 42.24 0l138.24-139.2 266.24 264.64c11.52 11.84 30.72 11.84 42.24 0 76402.88-76830.4 0-42.24z" />
<glyph unicode="&#xe92e;" glyph-name="repost" d="M934.827 785.493c-15.147 6.827-33.067 4.267-45.653-6.827l-58.027-51.627c-79.573 93.653-196.267 147.627-319.147 147.627-217.173 0.213-399.573-162.56-424.32-378.24-24.533-215.68 116.48-415.36 328.107-464.213 211.413-48.64 425.813 69.12 498.133 273.707 7.68 22.187-4.053 46.72-26.24 54.4s-46.507-4.053-55.68-26.24c-56.747-163.413-228.267-257.707-397.44-218.667-169.173 39.253-282.027 199.040-263.893 371.413 21.333 174.507 167.68 302.72 341.333 302.507 98.56 0 192-42.667 256-118.613l-70.827-62.72c-14.507-10.667-17.92-30.72-11.52-47.36 6.4-16.427 22.187-27.307 39.68-27.307h192c23.68 0 42.667 18.987 42.667 42.667v170.667c0 16.853-9.813 32-25.173 38.827z" />
<glyph unicode="&#xe92f;" glyph-name="pro" d="M936.96 564.48c-1.92 2.88-4.16 5.44-8.96 7.68l-363.84 366.4c-28.48 28.48-74.88 28.48-103.68 0 0 0 0 0 0 0l-366.080-366.4c-30.4-28.16-30.4-74.88 0-103.68 1.6-2.24 4.8-4.16 7.36-6.080 30.4-20.8 71.36-14.4 96.96 10.56l202.88 202.24c10.88 10.56 19.84 23.040 26.88 36.48l9.92 24.32v-721.6c-1.6-37.44 24.64-70.4 61.44-77.44 40-6.4 76.16 20.8 84.16 63.040 0.64 1.6 0.96 6.080 0.96 10.24v722.24l7.040-15.68c7.36-12.8 16-29.44 29.44-41.28l202.56-202.56c25.6-24.96 66.56-31.36 97.28-10.56 32.32 23.68 38.72 69.44 15.68 102.080z" />
<glyph unicode="&#xe930;" glyph-name="group" d="M874.667 426.667h-85.333c0-21.333 0-42.667 0-64v-298.667c0-21.333 0-21.333 0-42.667h128c64 0 106.667 42.667 106.667 85.333v170.667c0 85.333-85.333 149.333-149.333 149.333zM213.333 362.667c0 21.333 0 42.667 0 64h-85.333c-64 0-128-64-128-149.333v-170.667c0-42.667 21.333-85.333 85.333-85.333h128c0 21.333 0 21.333 0 42.667zM597.333 490.667h-192c-85.333 0-149.333-64-149.333-128v-298.667c0-21.333 21.333-42.667 42.667-42.667h405.333c21.333 0 42.667 21.333 42.667 42.667v298.667c0 64-64 128-149.333 128zM298.667 640c0-70.692-57.308-128-128-128s-128 57.308-128 128c0 70.692 57.308 128 128 128s128-57.308 128-128zM704 725.333c0-106.039-85.961-192-192-192s-192 85.961-192 192c0 106.039 85.961 192 192 192s192-85.961 192-192zM981.333 640c0-70.692-57.308-128-128-128s-128 57.308-128 128c0 70.692 57.308 128 128 128s128-57.308 128-128z" />
<glyph unicode="&#xe931;" glyph-name="warning" d="M1002.667 192l-362.667 665.173c-57.173 97.707-198.827 97.92-257.067 0l-361.6-665.173c-59.52-99.84 12.587-226.56 128-226.56h724.48c116.267 0 188.373 126.507 128.853 226.56zM512 85.547c-33.067 0-59.947 26.88-59.947 59.947s26.88 59.947 59.947 59.947c33.067 0 59.947-26.88 59.947-59.947s-26.88-59.947-59.947-59.947zM571.947 325.547c0-33.067-26.88-59.947-59.947-59.947s-59.947 26.88-59.947 59.947v299.947c0 33.067 26.88 59.947 59.947 59.947s59.947-26.88 59.947-59.947z" />
<glyph unicode="&#xe932;" glyph-name="apps" d="M51.2 960h204.8c28.277 0 51.2-22.923 51.2-51.2v-204.8c0-28.277-22.923-51.2-51.2-51.2h-204.8c-28.277 0-51.2 22.923-51.2 51.2v204.8c0 28.277 22.923 51.2 51.2 51.2zM51.2 601.6h204.8c28.277 0 51.2-22.923 51.2-51.2v-204.8c0-28.277-22.923-51.2-51.2-51.2h-204.8c-28.277 0-51.2 22.923-51.2 51.2v204.8c0 28.277 22.923 51.2 51.2 51.2zM51.2 243.2h204.8c28.277 0 51.2-22.923 51.2-51.2v-204.8c0-28.277-22.923-51.2-51.2-51.2h-204.8c-28.277 0-51.2 22.923-51.2 51.2v204.8c0 28.277 22.923 51.2 51.2 51.2zM409.6 960h204.8c28.277 0 51.2-22.923 51.2-51.2v-204.8c0-28.277-22.923-51.2-51.2-51.2h-204.8c-28.277 0-51.2 22.923-51.2 51.2v204.8c0 28.277 22.923 51.2 51.2 51.2zM409.6 601.6h204.8c28.277 0 51.2-22.923 51.2-51.2v-204.8c0-28.277-22.923-51.2-51.2-51.2h-204.8c-28.277 0-51.2 22.923-51.2 51.2v204.8c0 28.277 22.923 51.2 51.2 51.2zM409.6 243.2h204.8c28.277 0 51.2-22.923 51.2-51.2v-204.8c0-28.277-22.923-51.2-51.2-51.2h-204.8c-28.277 0-51.2 22.923-51.2 51.2v204.8c0 28.277 22.923 51.2 51.2 51.2zM768 960h204.8c28.277 0 51.2-22.923 51.2-51.2v-204.8c0-28.277-22.923-51.2-51.2-51.2h-204.8c-28.277 0-51.2 22.923-51.2 51.2v204.8c0 28.277 22.923 51.2 51.2 51.2zM768 601.6h204.8c28.277 0 51.2-22.923 51.2-51.2v-204.8c0-28.277-22.923-51.2-51.2-51.2h-204.8c-28.277 0-51.2 22.923-51.2 51.2v204.8c0 28.277 22.923 51.2 51.2 51.2zM768 243.2h204.8c28.277 0 51.2-22.923 51.2-51.2v-204.8c0-28.277-22.923-51.2-51.2-51.2h-204.8c-28.277 0-51.2 22.923-51.2 51.2v204.8c0 28.277 22.923 51.2 51.2 51.2z" />
<glyph unicode="&#xe933;" glyph-name="media" d="M928 960h-832c-53 0-96-43-96-96v-832c0-53 43-96 96-96h832c53 0 96 43 96 96v832c0 53-43 96-96 96zM960 333.125l-137.25 137.25c-12.5 12.437-32.688 12.437-45.125 0l-169.625-169.25-201.25 201.25c-12.5 12.437-32.688 12.437-45.125 0l-297.625-297.25v658.875c0 17.688 14.312 32 32 32h832c17.688 0 32-14.312 32-32zM768 704c0-53.019-42.981-96-96-96s-96 42.981-96 96c0 53.019 42.981 96 96 96s96-42.981 96-96z" />
<glyph unicode="&#xe934;" glyph-name="stopwatch" d="M384 960v-85.333h85.333v-42.667c30.293 4.267 55.893 4.267 85.333 0v42.667h85.333v85.333zM802.773 678.187l29.227 29.867 34.987-34.133 59.733 59.733-128.213 128-59.733-59.733 34.133-33.92-38.4-38.613c-205.013 123.947-469.76 59.947-589.44-145.28-119.467-205.013-55.467-461.227 145.28-584.107 200.32-124.8 465.493-60.8 584.32 144.213 106.667 175.787 77.653 397.227-71.893 533.973zM512 67.413c-166.187 0-298.667 132.267-298.667 298.88 0 167.040 132.48 299.093 298.667 299.093v-299.093h298.667c0-166.613-131.627-298.88-298.667-298.88z" />
<glyph unicode="&#xe935;" glyph-name="pin" d="M831.36 352c0-29.12-22.4-51.84-50.56-51.84h-172.8l-70.72-344.96c-2.56-11.84-12.8-19.2-25.28-19.2-11.52 0-21.76 7.36-24.32 19.2l-71.68 344.96h-171.84c-28.16 0-52.16 22.72-52.16 51.84 0 75.52 46.080 144.32 115.84 192v149.12h-47.040c-27.84 0-50.56 22.72-50.56 50.88v165.44c0 27.84 22.72 50.56 50.56 50.56h503.36c28.16 0 50.56-22.72 50.56-50.56v-165.44c0-28.16-22.4-50.88-50.56-50.88h-47.040v-149.12c69.76-47.68 114.24-116.48 114.24-192z" />
<glyph unicode="&#xe936;" glyph-name="list_add" d="M810.667 661.333h-469.333c-23.564 0-42.667 19.103-42.667 42.667s19.103 42.667 42.667 42.667v0h469.333c23.564 0 42.667-19.103 42.667-42.667s-19.103-42.667-42.667-42.667v0zM810.667 490.667h-469.333c-23.564 0-42.667 19.103-42.667 42.667s19.103 42.667 42.667 42.667v0h469.333c23.564 0 42.667-19.103 42.667-42.667s-19.103-42.667-42.667-42.667v0zM554.667 320h-213.333c-23.564 0-42.667 19.103-42.667 42.667s19.103 42.667 42.667 42.667v0h213.333c23.564 0 42.667-19.103 42.667-42.667s-19.103-42.667-42.667-42.667v0zM213.333 704c0-23.564-19.103-42.667-42.667-42.667s-42.667 19.103-42.667 42.667c0 23.564 19.103 42.667 42.667 42.667s42.667-19.103 42.667-42.667zM213.333 533.333c0-23.564-19.103-42.667-42.667-42.667s-42.667 19.103-42.667 42.667c0 23.564 19.103 42.667 42.667 42.667s42.667-19.103 42.667-42.667zM213.333 362.667c0-23.564-19.103-42.667-42.667-42.667s-42.667 19.103-42.667 42.667c0 23.564 19.103 42.667 42.667 42.667s42.667-19.103 42.667-42.667zM554.667 149.333h-213.333c-23.564 0-42.667 19.103-42.667 42.667s19.103 42.667 42.667 42.667v0h213.333c23.564 0 42.667-19.103 42.667-42.667s-19.103-42.667-42.667-42.667v0zM213.333 192c0-23.564-19.103-42.667-42.667-42.667s-42.667 19.103-42.667 42.667c0 23.564 19.103 42.667 42.667 42.667s42.667-19.103 42.667-42.667zM896 320h-42.667v42.667c0 23.564-19.103 42.667-42.667 42.667s-42.667-19.103-42.667-42.667v0-42.667h-42.667c-23.564 0-42.667-19.103-42.667-42.667s19.103-42.667 42.667-42.667v0h42.667v-42.667c0-23.564 19.103-42.667 42.667-42.667s42.667 19.103 42.667 42.667v0 42.667h42.667c23.564 0 42.667 19.103 42.667 42.667s-19.103 42.667-42.667 42.667v0z" />
<glyph unicode="&#xe937;" glyph-name="visible" d="M512 587.733c-77.013 0-139.733-62.72-139.733-139.733s62.72-139.733 139.733-139.733c77.013 0 139.733 62.72 139.733 139.733s-62.72 139.733-139.733 139.733zM512 797.013c-234.667 0-431.573-144.64-512-349.013 80.427-204.373 277.333-349.013 512-349.013 232.96 0 431.573 144.64 512 349.013-80.427 204.373-279.040 349.013-512 349.013zM512 215.253c-128.427 0-234.667 104.747-234.667 232.747 0 128.427 106.24 234.667 234.667 234.667 128 0 232.747-106.24 232.747-234.667 0-128-104.747-232.747-232.747-232.747z" />
<glyph unicode="&#xe938;" glyph-name="notifications" d="M362.667 106.667c21.333-128 85.333-170.667 149.333-170.667 42.667 0 106.667 42.667 128 170.667zM512 874.667c21.333 0 64 0 106.667-21.333v0c0 64-42.667 106.667-106.667 106.667h-21.333c-64 0-106.667-42.667-106.667-106.667v0c42.667 21.333 85.333 21.333 128 21.333zM874.667 106.667h-746.667c-21.333 0-21.333 0-21.333 21.333-21.333 0 0 21.333 0 21.333s21.333 21.333 64 64c21.333 106.667 42.667 213.333 42.667 298.667 0 170.667 128 298.667 298.667 298.667 149.333 0 277.333-128 277.333-277.333 0 0 0 0 0-21.333 0-85.333 21.333-192 42.667-298.667 42.667-42.667 64-64 64-64s21.333-21.333 0-21.333 0-21.333-21.333-21.333z" />
<glyph unicode="&#xe939;" glyph-name="search_alt" d="M987.68 153.12l-168.64 168.48c30.72 62.4 51.040 132.8 51.040 204.32 0 240-194.080 434.080-434.080 434.080s-434.080-194.080-434.080-434.080c0-240 194.080-434.24 434.080-434.24 71.52 0 143.040 20.48 204 52.32l168.8-169.76c51.2-51.040 127.84-51.040 178.88 0 45.92 51.2 45.92 127.68 0 178.88zM436 193.92c-183.84 0-332 148-332 332 0 183.84 148.16 332 332 332s332-148.16 332-332c0-184-148.16-332-332-332z" />
<glyph unicode="&#xe93a;" glyph-name="home" d="M1007.787 497.067l-474.453 453.973c-11.52 11.947-31.147 11.947-43.52 0l-474.027-454.4c-10.027-10.027-15.787-23.893-15.787-37.973 0-29.44 23.893-53.333 53.333-53.333h74.667v-405.333c0-35.413 28.587-64 64-64h181.333c17.707 0 32 14.293 32 32v277.333c0 5.76 4.693 10.667 10.667 10.667h192c5.76 0 10.667-4.907 10.667-10.667v-277.333c0-17.707 14.293-32 32-32h181.333c35.413 0 64 28.587 64 64v405.333h74.667c29.44 0 53.333 23.893 53.333 53.333 0 14.080-5.76 27.947-16.213 38.4z" />
<glyph unicode="&#xe93b;" glyph-name="bold" d="M703.849 462.456c66.56 46.381 113.544 121.675 113.544 192.151 0 155.106-120.169 275.275-275.275 275.275h-430.381v-963.765h484.593c144.264 0 255.699 117.158 255.699 260.819 0 104.809-59.633 193.958-148.179 235.52zM318.344 757.911h206.607c56.922 0 103.304-46.381 103.304-103.304 0-56.019-46.381-103.304-103.304-103.304h-206.607zM559.285 138.089h-240.941v206.607h240.941c57.224 0 103.304-46.080 103.304-103.304 0-56.922-46.080-103.304-103.304-103.304z" />
<glyph unicode="&#xe93c;" glyph-name="close" d="M602.453 448l402.773 402.773c24.747 24.747 24.747 66.56 0 90.453-25.173 24.747-66.56 24.747-90.453 0l-402.773-402.773-402.773 402.773c-25.173 24.747-66.56 24.747-90.453 0-24.747-23.893-24.747-65.707 0-90.453l402.773-402.773-402.773-402.773c-24.747-23.893-24.747-65.28 0-90.453 12.373-12.8 29.013-18.773 45.227-18.773s32.853 5.973 45.227 18.773l402.773 402.773 402.773-402.773c12.373-12.8 29.013-18.773 45.227-18.773s32.853 5.973 45.227 18.773c24.747 25.173 24.747 66.56 0 90.453z" />
<glyph unicode="&#xe93d;" glyph-name="email" d="M928 832h-832c-53.333 0-96-42.667-96-96v-576c0-52.907 42.667-96 96-96h832c52.907 0 96 43.093 96 96v576c0 53.333-43.093 96-96 96zM928 768c4.267 0 8.533 0 10.667-2.56l-426.667-371.2-428.16 371.2c3.627 2.56 7.893 2.56 12.16 2.56zM928 128h-832c-17.707 0-32 14.293-32 32v537.813l426.667-369.92c6.4-5.333 13.867-7.893 21.333-7.893s14.933 2.56 20.907 7.893l427.093 369.92v-537.813c0-17.707-14.293-32-32-32z" />
<glyph unicode="&#xe93e;" glyph-name="angle_right" d="M796.48 488l-455.68 456c-10.56 10.24-24.64 16-39.68 16s-29.12-5.76-39.52-16l-33.6-33.92c-21.92-21.76-21.92-57.44 0-78.080l382.56-383.84-383.040-383.040c-10.56-10.56-16.32-24.64-16.32-39.68 0-14.88 5.76-28.96 16.32-39.52l33.6-33.6c10.56-10.56 24.64-16.32 39.68-16.32 14.88 0 28.96 5.76 39.52 16.32l456.16 456.16c10.56 10.56 16.32 24.64 16.32 39.68 0 15.84-5.76 29.28-16.32 39.84z" />
<glyph unicode="&#xe93f;" glyph-name="share" d="M896 746.667c0-70.692-57.308-128-128-128s-128 57.308-128 128c0 70.692 57.308 128 128 128s128-57.308 128-128zM384 448c0-70.692-57.308-128-128-128s-128 57.308-128 128c0 70.692 57.308 128 128 128s128-57.308 128-128zM896 149.333c0-70.692-57.308-128-128-128s-128 57.308-128 128c0 70.692 57.308 128 128 128s128-57.308 128-128zM366.507 383.573l291.413-169.813M657.493 682.24l-290.987-169.813" />
<glyph unicode="&#xe940;" glyph-name="search" d="M1011.413 8.747l-291.2 291.2c56.533 69.76 90.453 158.293 90.453 254.72 0 223.573-181.76 405.333-405.333 405.333s-405.333-181.76-405.333-405.333c0-223.573 181.76-405.333 405.333-405.333 96.427 0 184.96 33.92 254.72 90.24l291.2-290.987c8.32-8.32 19.2-12.587 30.080-12.587s21.333 4.267 30.080 12.587c16.853 16.64 16.853 43.52 0 60.16zM405.333 234.667c-176.427 0-320 143.573-320 320s143.573 320 320 320c176.427 0 320-143.573 320-320s-143.573-320-320-320z" />
<glyph unicode="&#xe941;" glyph-name="angle_left" d="M413.44 448l383.040 384c10.56 9.44 16.32 23.36 16.32 38.56 0 14.88-5.76 28.96-16.32 39.52l-33.6 33.92c-10.88 10.24-24.64 16-39.68 16-14.88 0-28.96-5.76-39.52-16l-456.16-456.48c-10.56-10.56-16.32-23.52-16.32-39.52 0-15.2 5.76-29.44 16.32-40l455.68-455.68c10.56-10.56 24.64-16.32 39.68-16.32s29.12 5.76 39.52 16.32l33.6 33.6c21.92 21.76 21.92 57.44 0 79.2z" />
<glyph unicode="&#xe942;" glyph-name="block" d="M512 960c-281.6 0-512-230.4-512-512s230.4-512 512-512c281.6 0 512 230.4 512 512s-230.4 512-512 512zM102.4 448c0 225.28 184.32 409.6 409.6 409.6 92.16 0 179.2-30.72 250.88-87.040l-573.44-573.44c-56.32 71.68-87.040 158.72-87.040 250.88zM512 38.4c-92.16 0-179.2 30.72-250.88 87.040l573.44 573.44c56.32-71.68 87.040-158.72 87.040-250.88 0-225.28-184.32-409.6-409.6-409.6z" />
<glyph unicode="&#xe943;" glyph-name="add" d="M984 488h-432v432c0 22.080-17.92 40-40 40s-40-17.92-40-40v-432h-432c-22.080 0-40-17.92-40-40s17.92-40 40-40h432v-432c0-22.080 17.92-40 40-40s40 17.92 40 40v432h432c22.080 0 40 17.92 40 40s-17.92 40-40 40z" />
<glyph unicode="&#xe944;" glyph-name="poll" d="M910.293 960h-796.587c-62.72 0-113.707-50.987-113.707-113.707v-796.587c0-62.72 50.987-113.707 113.707-113.707h796.587c62.72 0 113.707 50.987 113.707 113.707v796.587c0 62.72-50.987 113.707-113.707 113.707zM341.333 163.627h-113.707v398.080h113.707zM568.96 163.627h-113.92v568.747h113.92zM796.373 163.627h-113.707v227.413h113.707z" />
<glyph unicode="&#xe945;" glyph-name="trends" d="M51.2 960h204.8c28.277 0 51.2-22.923 51.2-51.2v-614.4c0-28.277-22.923-51.2-51.2-51.2h-204.8c-28.277 0-51.2 22.923-51.2 51.2v614.4c0 28.277 22.923 51.2 51.2 51.2zM51.2 192h204.8c28.277 0 51.2-22.923 51.2-51.2v-153.6c0-28.277-22.923-51.2-51.2-51.2h-204.8c-28.277 0-51.2 22.923-51.2 51.2v153.6c0 28.277 22.923 51.2 51.2 51.2zM409.6 396.8h204.8c28.277 0 51.2-22.923 51.2-51.2v-358.4c0-28.277-22.923-51.2-51.2-51.2h-204.8c-28.277 0-51.2 22.923-51.2 51.2v358.4c0 28.277 22.923 51.2 51.2 51.2zM409.6 755.2h204.8c28.277 0 51.2-22.923 51.2-51.2v-204.8c0-28.277-22.923-51.2-51.2-51.2h-204.8c-28.277 0-51.2 22.923-51.2 51.2v204.8c0 28.277 22.923 51.2 51.2 51.2zM768 140.8h204.8c28.277 0 51.2-22.923 51.2-51.2v-102.4c0-28.277-22.923-51.2-51.2-51.2h-204.8c-28.277 0-51.2 22.923-51.2 51.2v102.4c0 28.277 22.923 51.2 51.2 51.2zM768 576h204.8c28.277 0 51.2-22.923 51.2-51.2v-281.6c0-28.277-22.923-51.2-51.2-51.2h-204.8c-28.277 0-51.2 22.923-51.2 51.2v281.6c0 28.277 22.923 51.2 51.2 51.2z" />
<glyph unicode="&#xe946;" glyph-name="underline" d="M481.882 180.254c177.393 0 321.355 143.661 321.355 321.355v428.273h-134.024v-428.273c0-103.605-83.727-187.633-187.332-187.633s-187.332 84.028-187.332 187.633v428.273h-134.024v-428.273c0-177.694 143.962-321.355 321.355-321.355zM106.918 73.035h749.929v-106.918h-749.929z" />
<glyph unicode="&#xe947;" glyph-name="caret_down" d="M1006.080 716.8c-12.373 12.373-27.733 18.773-44.8 18.773h-897.28c-21.333 0-32.427-6.4-44.8-18.773-12.8-12.8-19.2-27.733-19.2-45.227 0-17.067 6.4-32.427 19.2-44.8l448.427-448.853c12.8-12.8 27.733-18.773 44.373-18.773 17.92 0 32.853 5.973 42.667 18.773l451.413 448.853c12.8 12.373 17.92 27.733 17.92 44.8 0 17.493-5.12 32.427-17.92 45.227z" />
<glyph unicode="&#xe948;" glyph-name="bookmark" d="M832 960h-641.28c-16.64 0-30.080-13.44-30.080-30.080v-963.84c0-12.16 7.467-23.253 18.56-27.733 3.627-1.493 7.68-2.347 11.52-2.347 7.68 0 15.36 2.987 21.12 8.747l300.16 300.16 298.667-300.16c10.027-8.533 21.333-11.093 34.133-6.4 11.307 4.48 18.56 15.573 18.56 27.733v963.84c0 16.64-13.44 30.080-31.36 30.080z" />
<glyph unicode="&#xe949;" glyph-name="check" d="M1008.96 808.96c-19.84 23.040-52.48 23.040-72.32 0l-613.44-613.44-235.84 235.84c-19.84 20.16-55.36 20.16-72.32 0-20.16-19.84-20.16-52.48 0-72.32l272-272c19.84-20.16 52.48-20.16 72.32 0l649.6 649.6c20.16 19.84 20.16 52.48 0 72.32z" />
<glyph unicode="&#xe94a;" glyph-name="play" d="M839.84 544l-568.8 388.48c-26.24 18.080-52.8 27.52-74.72 27.52-42.56 0-68.8-34.080-68.8-91.2v-841.6c0-57.12 26.24-91.2 68.64-91.2 22.080 0 48.16 9.6 74.4 27.52l569.12 389.44c36.64 25.12 56.32 58.88 56.32 95.040 0 36.32-19.52 69.92-56.16 96z" />
<glyph unicode="&#xe94b;" glyph-name="text_size" d="M0 422.701h150.588v-355.087h153.901v355.087h152.094v152.094h-456.584zM304.489 828.386v-152.094h253.591v-608.678h152.094v608.678h253.591v152.094z" />
<glyph unicode="&#xe94c;" glyph-name="arrow_right" d="M840.832 478.165l-256 256c-16.64 16.64-43.648 16.64-60.331 0s-16.64-43.648 0-60.331l183.168-183.168h-537.003c-23.595 0-42.667-19.072-42.667-42.667s19.072-42.667 42.667-42.667h537.003l-183.168-183.168c-16.64-16.64-16.64-43.648 0-60.331 8.32-8.32 19.2-12.501 30.165-12.501s21.845 4.181 30.165 12.501l256 256c16.64 16.64 16.64 43.648 0 60.331z" />
<glyph unicode="&#xe94d;" glyph-name="pencil" d="M361.76 64l-233.76 232 563.36 562.080 232.48-232.48zM107.68 256l212.32-214.24-320-105.76zM995.36 696.8l-40.32-40.32-232.8 232.8 40.32 40.16c40.64 40.8 106.56 40.8 147.2 0l85.6-85.6c40.32-40.64 40.32-106.24 0-147.040z" />
<glyph unicode="&#xe94e;" glyph-name="blockquote" d="M0 379.031h206.607l-137.638-275.275h206.306l137.638 275.275v413.214h-412.913zM550.852 792.245v-413.214h206.306l-137.638-275.275h206.607l137.638 275.275v413.214z" />
<glyph unicode="&#xe94f;" glyph-name="arrow_left" d="M853.333 490.667h-537.003l183.168 183.168c16.64 16.64 16.64 43.648 0 60.331s-43.648 16.64-60.331 0l-256-256c-16.64-16.64-16.64-43.648 0-60.331l256-256c8.32-8.32 19.2-12.501 30.165-12.501s21.845 4.181 30.165 12.501c16.64 16.64 16.64 43.648 0 60.331l-183.168 183.168h537.003c23.595 0 42.667 19.072 42.667 42.667s-19.072 42.667-42.667 42.667z" />
<glyph unicode="&#xe951;" glyph-name="subtract" d="M984 488h-944c-22.080 0-40-17.92-40-40s17.92-40 40-40h944c22.080 0 40 17.92 40 40s-17.92 40-40 40z" />
<glyph unicode="&#xe952;" glyph-name="italic" d="M344.245 929.882v-206.607h152.395l-236.122-550.551h-191.548v-206.607h550.551v206.607h-152.395l236.122 550.551h191.548v206.607z" />
<glyph unicode="&#xe953;" glyph-name="star" d="M512 934.955l156.501-322.901 355.499-49.109-258.731-248.661 63.147-353.237-316.416 169.259-316.587-168.96 63.189 353.237-258.731 248.661 355.499 49.109z" />
<glyph unicode="&#xe954;" glyph-name="ellipsis" d="M298.667 448c0-47.128-38.205-85.333-85.333-85.333s-85.333 38.205-85.333 85.333c0 47.128 38.205 85.333 85.333 85.333s85.333-38.205 85.333-85.333zM597.333 448c0-47.128-38.205-85.333-85.333-85.333s-85.333 38.205-85.333 85.333c0 47.128 38.205 85.333 85.333 85.333s85.333-38.205 85.333-85.333zM896 448c0-47.128-38.205-85.333-85.333-85.333s-85.333 38.205-85.333 85.333c0 47.128 38.205 85.333 85.333 85.333s85.333-38.205 85.333-85.333z" />
<glyph unicode="&#xe955;" glyph-name="pause" d="M160 960h160c35.346 0 64-28.654 64-64v-896c0-35.346-28.654-64-64-64h-160c-35.346 0-64 28.654-64 64v896c0 35.346 28.654 64 64 64zM704 960h160c35.346 0 64-28.654 64-64v-896c0-35.346-28.654-64-64-64h-160c-35.346 0-64 28.654-64 64v896c0 35.346 28.654 64 64 64z" />
</font>
</defs>
</svg>
